Хапай і тікай / Hit and Run (2012) AVC Ukr/Eng | sub Eng

Нові коментарі

Нова тема   Відповісти
Автор Повідомлення
Arsenfpu 
Відео Гуртом - фільмокрай
Відео Гуртом - фільмокрай


З нами з: 30.04.09
Востаннє: 10.07.20
Повідомлень: 7049

2020-03-15 11:03  
Хапай і тікай / Hit and Run (2012) AVC Ukr/Eng | sub Eng

Хапай і тікай / Hit and Run (2012) AVC Ukr/Eng | sub Eng


Жанр: пригодницький, комедія
Країна: США



Кінокомпанія: Exclusive Media Group, Panay Films, Primate Pictures
Режисер: Девід Палмер, Декс Шепард
Актори: Крістен Белл, Декс Шепард, Бредлі Купер, Том Арнольд, Крістін Ченоует, Майкл Розенбаум, Джой Брайант, Райан Хансен, Бо Бріджес, Шон ХейсОпісаніе

Сюжет:
Колишній грабіжник банків Чарлі, який пішов на угоду з правосуддям, ховається в маленькому каліфорнійському містечку: у нього свій будинок, налагоджений побут і кохана дівчина Енні. Коли Енні дізнається, що у неї є шанс отримати роботу мрії в Лос-Анджелесі, вона умовляє Чарлі порушити правила, висунути носа з містечка і відвезти її на співбесіду. Програма щодо захисту свідків дає збій, і на слід Чарлі виходять його колишні подільники, на чолі з мстивим психопатом Алексом. До гонитви також приєднуються неврівноважений федеральний маршал, приставлений для охорони Чарлі, і ревнивий колишній хлопець Енні. Замість розважальної прогулянки Чарлі чекає неперервна низка зіткнень, пасток і підстав - не кажучи вже про зустрічі з колоритними мешканцями Південної Каліфорнії, які вносять додаткові нотки божевілля в і без того божевільну гонку.


Тривалість: 01:39:54
Якість:
Відео:
кодек:
розмір кадру: 1152 x 480
бітрейт: 3270 кб/с

Аудіо # 1:
мова: українська
переклад: багатоголосий закадровий
кодек: 2.0
бітрейт: 192 кб/с
примітка: протягом фільму є кілька неозвучених епізодів загальною тривалістю коло хвилини

Аудіо # 2:
мова: англійська
переклад: оригінал
кодек: 2.0
бітрейт: 192 кб/с

Субтитри:
мова: англійська
тип: програмні (м'які)
формат: *.srt
Скріншоти














Про файл
General
Unique ID : 237883132975575818513802759322297455843 (0xB2F69FF9DAD2247CEDAFFD68B75054E3)
Complete name : C:\Hit and Run (2012) [Ukr,Eng] AVC [Hurtom].
Format :
Format version : Version 4 / Version 2
File size : 2.55 GiB
Duration : 1 h 39 min
Overall bit rate : 3 653 kb/s
Movie name : Хапай і тікай / Hit and Run (2012)
Encoded date : UTC 2020-03-16 07:24:24
Writing application : v21.0.0 ('Tardigrades Will Inherit The Earth') 32-bit
Writing library : libebml v1.3.5 + v1.4.8
Cover : Yes
Attachments : cover.jpg

Video
ID : 1
Format : AVC
Format/Info : Advanced Video Codec
Format profile : [email protected]
Format settings, CABAC : Yes
Format settings, ReFrames : 11 frames
Codec ID : V_MPEG4/ISO/AVC
Duration : 1 h 39 min
Bit rate : 3 270 kb/s
Width : 1 152 pixels
Height : 480 pixels
Display aspect ratio : 2.40:1
Frame rate mode : Constant
Frame rate : 23.976 FPS
Color space : YUV
Chroma subsampling : 4:2:0
Bit depth : 8 bits
Scan type : Progressive
Bits/(Pixel*Frame) : 0.247
Stream size : 2.28 GiB (89%)
Writing library : core 133 r2334 a3ac64b
Encoding settings : cabac=1 / ref=11 / deblock=1:-2:-1 / analyse=0x3:0x133 / me=umh / subme=11 / psy=1 / psy_rd=1.00:0.05 / mixed_ref=1 / me_range=32 / chroma_me=1 / trellis=2 / 8x8dct=1 / cqm=0 / deadzone=21,11 / fast_pskip=0 / chroma_qp_offset=-3 / threads=12 / lookahead_threads=2 / sliced_threads=0 / nr=0 / decimate=1 / interlaced=0 / bluray_compat=0 / constrained_intra=0 / bframes=8 / b_pyramid=2 / b_adapt=2 / b_bias=0 / direct=3 / weightb=1 / open_gop=0 / weightp=2 / keyint=250 / keyint_min=23 / scenecut=40 / intra_refresh=0 / rc_lookahead=60 / rc=2pass / mbtree=1 / bitrate=3270 / ratetol=1.0 / qcomp=0.60 / qpmin=0 / qpmax=69 / qpstep=4 / cplxblur=20.0 / qblur=0.5 / ip_ratio=1.40 / aq=1:1.00
Language : English
Default : Yes
Forced : No

Audio #1
ID : 2
Format : AC-3
Format/Info : Audio Coding 3
Mode extension : CM (complete main)
Format settings, Endianness : Big
Codec ID : A_AC3
Duration : 1 h 39 min
Bit rate mode : Constant
Bit rate : 192 kb/s
Channel(s) : 2 channels
Channel positions : Front: L R
Sampling rate : 48.0 kHz
Frame rate : 31.250 FPS (1536 spf)
Compression mode : Lossy
Stream size : 137 MiB (5%)
Title : ТЕТ
Language : Ukrainian
Default : Yes
Forced : Yes

Audio #2
ID : 3
Format : AC-3
Format/Info : Audio Coding 3
Mode extension : CM (complete main)
Format settings, Endianness : Big
Codec ID : A_AC3
Duration : 1 h 39 min
Bit rate mode : Constant
Bit rate : 192 kb/s
Channel(s) : 2 channels
Channel positions : Front: L R
Sampling rate : 48.0 kHz
Frame rate : 31.250 FPS (1536 spf)
Compression mode : Lossy
Stream size : 137 MiB (5%)
Language : English
Default : No
Forced : No

Text #1
ID : 4
Format : UTF-8
Codec ID : S_TEXT/UTF8
Codec ID/Info : UTF-8 Plain Text
Duration : 1 h 34 min
Bit rate : 82 b/s
Count of elements : 1723
Stream size : 57.3 KiB (0%)
Title : Eng
Language : English
Default : No
Forced : No

Text #2
ID : 5
Format : UTF-8
Codec ID : S_TEXT/UTF8
Codec ID/Info : UTF-8 Plain Text
Duration : 1 h 34 min
Bit rate : 84 b/s
Count of elements : 1723
Stream size : 58.7 KiB (0%)
Title : Eng SDH
Language : English
Default : No
Forced : No
Джерело:
Особиста оцінка: не дивився


 Трекер:    Зареєстрований   

Завантажити / скачати фільм українською



відео для новачків



 Зареєстрований:   2020-03-16 10:46
 Розмір:   2.55 GB 
 Оцінка фільму:   8.4/10 (Голосів: 12)
   
MakRA 
VIP


З нами з: 11.11.18
Востаннє: 10.07.20
Повідомлень: 1085

2020-03-15 17:26  
+ Remux 1080p
bot 
робот


З нами з: 30.09.07
Востаннє: 26.05.05
Повідомлень: 25026

2020-03-16 10:46  
Тему перенесено з Анонси релізів до форуму Фільми


Arsenfpu

Zerta 
Частий відвідувач


З нами з: 06.02.17
Востаннє: 10.07.20
Повідомлень: 27

2020-03-18 20:52  
Прочитавши опис фільму,подумав що це буде десь 8 можливо 9 з 10.Насправді опис цікавіший ніж сам фільм.Особиста оцінка 5 з 10.Не сподобався .Не раджу до перегляду.Краще 10 раз подивитись якийсь старий хороший фільм,ніж один раз це лайно.
Ваш часовий пояс: GMT + 2 Години

Нова тема   Відповісти