Вітаємо у Зомбіленді / Ласкаво просимо у Зомбіленд / Zombieland (2009) UHD Remux 4K 2160p 3xUkr/Eng | Sub Ukr/Eng

Нові коментарі

Нова тема   Відповісти
Автор Повідомлення
Anonymous 







2020-03-15 01:59  
Вітаємо у Зомбіленді / Ласкаво просимо у Зомбіленд / Zombieland (2009) UHD Remux 4K 2160p 3xUkr/Eng | Sub Ukr/Eng

Вітаємо у Зомбіленді / Ласкаво просимо у Зомбіленд / Zombieland (2009) UHD Remux 4K 2160p 3xUkr/Eng | Sub Ukr/Eng


Жанр: комедія, жахи
Країна: США



Кінокомпанія: Columbia Pictures, Relativity Media Pariah
Режисер: Рубен Флейшер
Актори: Джессі Айзенберґ, Вуді Гаррельсон, Емма Стоун, Ебіґейл Бреслін, Ембер Герд, Білл Мюррей та інші.

Сюжет:
Зомбілістичний апокаліпсис. Невелика група людей, яким вдалося вижити, блукає від узбережжя до узбережжя, борючись з живими мерцями. Одного разу вони зупиняються в парку розваг з надією, що там будуть в безпеці.


Тривалість: 01:27:42
Якість: UHD Remux 4K 2160p

Відео:
кодек: H.265 (HEVC)
розмір кадру: 3840x2160
бітрейт: 53.6 Мб/с
бітова глибина: 10 біт
кольоровий простір: BT.2020 (HDR)

Аудіо # 1:
мова: українська
переклад: професійний дубльований
кодек: 5.1
бітрейт: 640 кб/с
Інформація про дубляж
Емма Стоун/Вічіта — Юлія Перенчук
Джесі Айзенберґ/Коламбус — Павло Скороходько
Вуді Гаррельсон/Талагасі — Олег Стальчук
Емма Стоун/Вічіта — Юлія Перенчук
Ебігейл Бреслін/Літл-Рок — Анастасія Зіновенко
Білл Мюррей — Євген Пашин
Майк Вайт — Андрій Твердак

Переклад: Федора Сидорука
Режисер дубляжу: Іван Марченко
Звукорежисер: Фелікс Трескунов
Координатор проекту: Лариса Шаталова

Фільм дубльований Невафільм Україна, Київ 2009 рік
Аудіо # 2:
мова: українська
переклад: багатоголосий закадровий
кодек: 2.0
бітрейт: 192 кб/с

Аудіо # 3:
мова: українська
переклад: багатоголосий закадровий
кодек: 2.0
бітрейт: 192 кб/с
Інформація про озвучення
Ролі озвучили: Дмитро Терещук, Олег Стальчук і один чи два жіночих

Фільм перекладено і озвучено на студії Так Треба Продакшн на замовлення телекомпанії ICTV
Аудіо # 4:
мова: англійська
переклад: оригінал
кодек: 5.1
бітрейт: 640 кб/с

Аудіо # 5:
мова: англійська
переклад: оригінал
кодек: TrueHD + Atmos 7.1
бітрейт: 3096 кб/с

Субтитри # 1 - 2: (Forced, Full)
мова: українська
тип: програмні (м'які)
формат: *.srt

Субтитри # 3 - 4: (Full, SDH)
мова: англійська
тип: програмні (м'які)
формат: *.srt
Info

General
Complete name : Zombieland (2009) UHD Remux 2160p [Ukr, Eng] [ViDeO_Hurtom].
Format :
Format version : Version 4
File size : 35.8 GiB
Duration : 1 h 27 min
Overall bit rate mode : Variable
Overall bit rate : 58.5 Mb/s
Movie name : Вітаємо у Зомбіленді / Ласкаво просимо у Зомбіленд / Zombieland (2009)
Encoded date : UTC 2020-03-14 21:57:35
Writing application : v30.1.0 ('Forever And More') 64-bit
Writing library : libebml v1.3.6 + v1.4.9
Cover : Yes
Attachments : cover.jpg

Video
ID : 1
Format : HEVC
Format/Info : High Efficiency Video Coding
Commercial name : HDR10
Format profile : Main [email protected]@High
Codec ID : V_MPEGH/ISO/HEVC
Duration : 1 h 27 min
Bit rate : 53.6 Mb/s
Width : 3 840 pixels
Height : 2 160 pixels
Display aspect ratio : 16:9
Frame rate mode : Constant
Frame rate : 23.976 (24000/1001) FPS
Color space : YUV
Chroma subsampling : 4:2:0 (Type 2)
Bit depth : 10 bits
Bits/(Pixel*Frame) : 0.269
Stream size : 32.8 GiB (92%)
Title : Zombieland.2009.2160p.Remux.2160p.HDR.HEVC.x265.10bit.Master5
Language : English
Default : No
Forced : No
Color range : Limited
Color primaries : BT.2020
Transfer characteristics : PQ
Matrix coefficients : BT.2020 non-constant
Mastering display color primaries : Display P3
Mastering display luminance : min: 0.0050 cd/m2, max: 4000 cd/m2
Maximum Content Light Level : 10000 cd/m2
Maximum Frame-Average Light Level : 1166 cd/m2

Audio #1
ID : 2
Format : AC-3
Format/Info : Audio Coding 3
Commercial name : Dolby Digital
Codec ID : A_AC3
Duration : 1 h 27 min
Bit rate mode : Constant
Bit rate : 640 kb/s
Channel(s) : 6 channels
Channel layout : L R C LFE Ls Rs
Sampling rate : 48.0 kHz
Frame rate : 31.250 FPS (1536 SPF)
Bit depth : 16 bits
Compression mode : Lossy
Stream size : 401 MiB (1%)
Title : , 6 ch, 640 Кбт/с
Language : Ukrainian
Service kind : Complete Main
Default : Yes
Forced : No

Audio #2
ID : 3
Format : AC-3
Format/Info : Audio Coding 3
Commercial name : Dolby Digital
Codec ID : A_AC3
Duration : 1 h 27 min
Bit rate mode : Constant
Bit rate : 192 kb/s
Channel(s) : 2 channels
Channel layout : L R
Sampling rate : 48.0 kHz
Frame rate : 31.250 FPS (1536 SPF)
Bit depth : 16 bits
Compression mode : Lossy
Stream size : 120 MiB (0%)
Title : , 2 ch, 192 Кбт/с
Language : Ukrainian
Service kind : Complete Main
Default : No
Forced : No

Audio #3
ID : 4
Format : AC-3
Format/Info : Audio Coding 3
Commercial name : Dolby Digital
Codec ID : A_AC3
Duration : 1 h 27 min
Bit rate mode : Constant
Bit rate : 192 kb/s
Channel(s) : 2 channels
Channel layout : L R
Sampling rate : 48.0 kHz
Frame rate : 31.250 FPS (1536 SPF)
Bit depth : 16 bits
Compression mode : Lossy
Stream size : 120 MiB (0%)
Title : , 2 ch, 192 Кбт/с
Language : Ukrainian
Service kind : Complete Main
Default : No
Forced : No

Audio #4
ID : 5
Format : AC-3
Format/Info : Audio Coding 3
Commercial name : Dolby Digital
Codec ID : A_AC3
Duration : 1 h 27 min
Bit rate mode : Constant
Bit rate : 640 kb/s
Channel(s) : 6 channels
Channel layout : L R C LFE Ls Rs
Sampling rate : 48.0 kHz
Frame rate : 31.250 FPS (1536 SPF)
Bit depth : 16 bits
Compression mode : Lossy
Stream size : 401 MiB (1%)
Title : , 6 ch, 640 Кбт/с
Language : English
Service kind : Complete Main
Default : No
Forced : No

Audio #5
ID : 6
Format : MLP FBA 16-ch
Format/Info : Meridian Lossless Packing FBA with 16-channel presentation
Commercial name : Dolby TrueHD with Dolby Atmos
Codec ID : A_TRUEHD
Duration : 1 h 27 min
Bit rate mode : Variable
Bit rate : 3 096 kb/s
Maximum bit rate : 4 956 kb/s
Channel(s) : 8 channels
Channel layout : L R C LFE Ls Rs Lb Rb
Sampling rate : 48.0 kHz
Frame rate : 1 200.000 FPS (40 SPF)
Compression mode : Lossless
Stream size : 1.90 GiB (5%)
Title : TrueHD, 8 ch, 3096 Кбт/с
Language : English
Default : No
Forced : No
Number of dynamic objects : 11
Bed channel count : 1 channel
Bed channel configuration : LFE

Text #1
ID : 7
Format : PGS
Muxing mode : zlib
Codec ID : S_HDMV/PGS
Codec ID/Info : Picture based subtitle format used on BDs/HD-DVDs
Duration : 1 h 24 min
Bit rate : 466 b/s
Count of elements : 37
Stream size : 291 KiB (0%)
Title : FORCED
Language : Ukrainian
Default : Yes
Forced : No

Text #2
ID : 8
Format : PGS
Muxing mode : zlib
Codec ID : S_HDMV/PGS
Codec ID/Info : Picture based subtitle format used on BDs/HD-DVDs
Duration : 1 h 27 min
Bit rate : 25.1 kb/s
Count of elements : 1872
Stream size : 15.6 MiB (0%)
Title : Full
Language : Ukrainian
Default : No
Forced : No

Text #3
ID : 9
Format : PGS
Muxing mode : zlib
Codec ID : S_HDMV/PGS
Codec ID/Info : Picture based subtitle format used on BDs/HD-DVDs
Duration : 1 h 26 min
Bit rate : 28.4 kb/s
Count of elements : 1783
Stream size : 17.7 MiB (0%)
Title : Full
Language : English
Default : No
Forced : No

Text #4
ID : 10
Format : PGS
Muxing mode : zlib
Codec ID : S_HDMV/PGS
Codec ID/Info : Picture based subtitle format used on BDs/HD-DVDs
Duration : 1 h 27 min
Bit rate : 37.5 kb/s
Count of elements : 2552
Stream size : 23.4 MiB (0%)
Title : SDH
Language : English
Default : No
Forced : No

Menu
00:00:00.000 : en:Chapter 01
00:04:53.543 : en:Chapter 02
00:07:13.516 : en:Chapter 03
00:12:37.673 : en:Chapter 04
00:18:33.654 : en:Chapter 05
00:24:07.237 : en:Chapter 06
00:30:29.035 : en:Chapter 07
00:36:39.071 : en:Chapter 08
00:41:05.838 : en:Chapter 09
00:45:54.418 : en:Chapter 10
00:49:26.171 : en:Chapter 11
00:55:55.935 : en:Chapter 12
01:02:59.275 : en:Chapter 13
01:08:10.795 : en:Chapter 14
01:14:53.739 : en:Chapter 15
01:19:47.157 : en:Chapter 16
Скріншоти
Джерело:
Особиста оцінка: 8 - мені сподобалося
Увага! Перед завантаженням переконайтесь, що ваш пристрій відтворення (та/або ПЗ) підтримує H.265 (HEVC)


Золотий реліз (завантажене не впливає на рейтинг)
 Трекер:    Зареєстрований   

Завантажити / скачати фільм українською



відео для новачків



 Зареєстрований:   2020-03-15 01:59
 Розмір:   35.81 GB 
 Оцінка фільму:   10/10 (Голосів: 7)
 ЗАЛИШАЙТЕСЬ ЯКОМОГА ДОВШЕ НА РОЗДАЧІ! ЗАВАНТАЖИВ САМ - ДАЙ ЗАВАНТАЖИТИ ІНШИМ!
   
O_omarella! 
Поважний учасник


З нами з: 14.06.13
Востаннє: 18.08.20
Повідомлень: 194

2020-03-15 12:22  
Прикольний фільм!
Ваш часовий пояс: GMT + 2 Години

Нова тема   Відповісти