Кімната бажань / The Room (2019) Remux 1080p Ukr/Eng | Sub Eng

Нові коментарі

Нова тема   Відповісти
Автор Повідомлення
Anonymous 







2020-03-14 19:28  
Кімната бажань / The Room (2019) Remux 1080p Ukr/Eng | Sub Eng

Кімната бажань / The Room (2019) Remux 1080p Ukr/Eng | Sub Eng


Жанр: детектив, драма, фантастика
Країна: Франція, Бельгія, Люксембург




Кінокомпанія: Les Films du Poisson, Versus Production
Режисер: Крістіан Волькман
Актори: Ольга Куриленко, Кевін Янссенс, Маріанн Бург, Френсіс Чепмен, Джон Фландерс, Ерік Жигу, Мікаель Кахья, Керол Уейерс, Джошуа Вілсон

Сюжет:
Молода пара Кейт і Метт перебралися з густонаселеного Нью-Йорка в самотній будиночок. Місцеві жителі радо їх зустріли, але попередили про історію будинку – його попередні власники були вбиті. "Будинок на крові" – такі заголовки знайшов Метт у місцевих ЗМІ. Це не вселяє оптимізму, звичайно ж. Але після першого часу проживання нічого дивного не відбулося. Пара дуже сильно мріє про дитину, але дві попередні вагітності Кейт закінчилися викиднями. Вони не збираються здаватися, але надії мало. І все ж їх будинок не такий простий, як здавалося спочатку. Метт знайшов дивну замуровану кімнату. Вона виконує будь-які матеріальні бажання. Пляшка віскі, коштовності, оригінал Ван Гога, мільйон доларів – що завгодно. Коли вони награлися, Кейт вирішила попросити те, чого вона хоче найбільше – дитини. Тільки те, що створено в кімнаті, не має права залишати будинок... А хлопчик колись захоче на свободу.


Тривалість: 01:39:11
Якість: Blu-Ray Remux 1080p

Відео:
кодек:
розмір кадру: 1920x1080
бітрейт: 25 Мб/с

Аудіо #1:
мова: українська
переклад: професійний дубльований
кодек: 5.1
бітрейт: 384 кб/с

Аудіо # 2:
мова: англійська
переклад: оригінал
кодек: -HD MA 5.1
бітрейт: 1743 кб/с

Субтитри:
мова: англійська
тип: програмні (м'які)
формат: *.srt
Info
Код:

General
Complete name                            : The Room (2019) Remux 1080p [Ukr_Eng] [ViDeO_Hurtom].
Format                                   :
Format version                           : Version 4
File size                                : 18.8 GiB
Duration                                 : 1 h 39 min
Overall bit rate mode                    : Variable
Overall bit rate                         : 27.2 Mb/s
Movie name                               : Кімната бажань / The Room (2019)
Encoded date                             : UTC 2020-03-14 11:02:18
Writing application                      : v30.1.0 ('Forever And More') 64-bit
Writing library                          : libebml v1.3.6 + v1.4.9
Cover                                    : Yes
Attachments                              : cover.jpg

Video
ID                                       : 1
Format                                   : MPEG Video
Format version                           : Version 2
Format profile                           : [email protected]
Format settings                          : BVOP
Format settings, BVOP                    : Yes
Format settings, Matrix                  : Default
Format settings, GOP                     : M=3, N=12
Codec ID                                 : V_MPEG2
Codec ID/Info                            : MPEG 1 or 2 Video
Duration                                 : 1 h 39 min
Bit rate mode                            : Variable
Bit rate                                 : 25.0 Mb/s
Maximum bit rate                         : 40.0 Mb/s
Width                                    : 1 920 pixels
Height                                   : 1 080 pixels
Display aspect ratio                     : 16:9
Frame rate mode                          : Constant
Frame rate                               : 24.000 FPS
Color space                              : YUV
Chroma subsampling                       : 4:2:0
Bit depth                                : 8 bits
Scan type                                : Progressive
Compression mode                         : Lossy
Bits/(Pixel*Frame)                       : 0.503
Time code of first frame                 : 00:00:00:00
Time code source                         : Group of pictures header
GOP, Open/Closed                         : Closed
Stream size                              : 17.3 GiB (92%)
Language                                 : English
Default                                  : Yes
Forced                                   : No

Audio #1
ID                                       : 2
Format                                   : AC-3
Format/Info                              : Audio Coding 3
Commercial name                          : Dolby Digital
Codec ID                                 : A_AC3
Duration                                 : 1 h 39 min
Bit rate mode                            : Constant
Bit rate                                 : 384 kb/s
Channel(s)                               : 6 channels
Channel layout                           : L R C LFE Ls Rs
Sampling rate                            : 48.0 kHz
Frame rate                               : 31.250 FPS (1536 SPF)
Bit depth                                : 16 bits
Compression mode                         : Lossy
Stream size                              : 272 MiB (1%)
Title                                    : , 5/1, 192 Kbps
Language                                 : Ukrainian
Service kind                             : Complete Main
Default                                  : Yes
Forced                                   : No

Audio #2
ID                                       : 3
Format                                   : XLL
Format/Info                              : Digital Theater Systems
Commercial name                          : -HD Master Audio
Codec ID                                 : A_DTS
Duration                                 : 1 h 39 min
Bit rate mode                            : Variable
Bit rate                                 : 1 743 kb/s
Channel(s)                               : 6 channels
Channel layout                           : C L R Ls Rs LFE
Sampling rate                            : 48.0 kHz
Frame rate                               : 93.750 FPS (512 SPF)
Bit depth                                : 16 bits
Compression mode                         : Lossless
Stream size                              : 1.21 GiB (6%)
Title                                    : -HD MA, 5.1, 1743 Kbps
Language                                 : English
Default                                  : No
Forced                                   : No

Text
ID                                       : 4
Format                                   : UTF-8
Codec ID                                 : S_TEXT/UTF8
Codec ID/Info                            : UTF-8 Plain Text
Duration                                 : 1 h 32 min
Bit rate                                 : 22 b/s
Count of elements                        : 636
Stream size                              : 15.5 KiB (0%)
Title                                    : Full
Language                                 : English
Default                                  : No
Forced                                   : No

Menu
00:00:00.000                             : en:Глава 01
00:09:01.500                             : en:Глава 02
00:19:51.500                             : en:Глава 03
00:29:38.500                             : en:Глава 04
00:38:45.500                             : en:Глава 05
00:49:33.000                             : en:Глава 06
01:02:01.000                             : en:Глава 07
01:10:37.500                             : en:Глава 08
01:20:13.500                             : en:Глава 09
01:30:57.500                             : en:Глава 10
Скріншоти



Джерело:
Особиста оцінка: 0 - не дивився


Золотий реліз (завантажене не впливає на рейтинг)
 Трекер:    Зареєстрований   

Завантажити / скачати фільм українською



відео для новачків



 Зареєстрований:   2020-03-14 19:28
 Розмір:   18.81 GB 
 Оцінка фільму:   8.3/10 (Голосів: 7)
   
Інші релізи
   Кімната бажань / The Room (2019) 1080p H.265 Ukr/Eng | Sub Eng -Star-Lord-  1 / 0   6.41 GB   2020-03-18 19:23 
   Кімната бажань / The Room (2019) 1080p Ukr/Eng | Sub Eng antik_2008  8 / 0   7.63 GB   2020-03-14 19:22 
   Кімната бажань / The Room (2019) antik_2008  12 / 0   1.45 GB   2020-03-14 19:08 
   Кімната бажань / The Room (2019) 720p Ukr/Eng | Sub Eng 11FrYkT  8 / 0   3.62 GB   2020-03-14 13:28 
   Кімната бажань / The Room (2019) AVC Ukr/Eng | Sub Eng 11FrYkT  9 / 0   2.13 GB   2020-03-14 13:25 
O_omarella! 
Поважний учасник


З нами з: 14.06.13
Востаннє: 18.08.20
Повідомлень: 194

2020-03-24 21:43  
Фільм в принципі не поганий, залишив мутні думки на пару днів)
Ваш часовий пояс: GMT + 2 Години

Нова тема   Відповісти