Кімната бажань / The Room (2019) 1080p Ukr/Eng | Sub Eng

Нові коментарі

Нова тема   Відповісти
Автор Повідомлення
Anonymous 







2020-03-14 19:22  
Кімната бажань / The Room (2019) 1080p Ukr/Eng | Sub Eng

Кімната бажань / The Room (2019) 1080p Ukr/Eng | Sub Eng


Жанр: детектив, драма, фантастика
Країна: Франція, Бельгія, Люксембург




Кінокомпанія: Les Films du Poisson, Versus Production
Режисер: Крістіан Волькман
Актори: Ольга Куриленко, Кевін Янссенс, Маріанн Бург, Френсіс Чепмен, Джон Фландерс, Ерік Жигу, Мікаель Кахья, Керол Уейерс, Джошуа Вілсон

Сюжет:
Молода пара Кейт і Метт перебралися з густонаселеного Нью-Йорка в самотній будиночок. Місцеві жителі радо їх зустріли, але попередили про історію будинку – його попередні власники були вбиті. "Будинок на крові" – такі заголовки знайшов Метт у місцевих ЗМІ. Це не вселяє оптимізму, звичайно ж. Але після першого часу проживання нічого дивного не відбулося. Пара дуже сильно мріє про дитину, але дві попередні вагітності Кейт закінчилися викиднями. Вони не збираються здаватися, але надії мало. І все ж їх будинок не такий простий, як здавалося спочатку. Метт знайшов дивну замуровану кімнату. Вона виконує будь-які матеріальні бажання. Пляшка віскі, коштовності, оригінал Ван Гога, мільйон доларів – що завгодно. Коли вони награлися, Кейт вирішила попросити те, чого вона хоче найбільше – дитини. Тільки те, що створено в кімнаті, не має права залишати будинок... А хлопчик колись захоче на свободу.


Тривалість: 01:39:11
Якість: 1080p

Відео:
кодек:
розмір кадру: 1920x804
бітрейт: 10000 кб/с

Аудіо #1:
мова: українська
переклад: професійний дубльований
кодек: 5.1
бітрейт: 384 кб/с

Аудіо # 2:
мова: англійська
переклад: оригінал
кодек: 5.1
бітрейт: 640 кб/с

Субтитри:
мова: англійська
тип: програмні (м'які)
формат: *.srt
Info
Код:

General
Complete name                            : The Room (2019) 1080p [ukr_eng] [Video_Hurtom].
Format                                   :
Format version                           : Version 4
File size                                : 7.63 GiB
Duration                                 : 1 h 39 min
Overall bit rate                         : 11.0 Mb/s
Movie name                               : The Room 2019 from селезень
Encoded date                             : UTC 2020-03-14 15:21:19
Writing application                      : v30.1.0 ('Forever And More') 64-bit
Writing library                          : libebml v1.3.6 + v1.4.9

Video
ID                                       : 1
Format                                   : AVC
Format/Info                              : Advanced Video Codec
Format profile                           : [email protected]
Format settings                          : CABAC / 5 Ref Frames
Format settings, CABAC                   : Yes
Format settings, RefFrames               : 5 frames
Codec ID                                 : V_MPEG4/ISO/AVC
Duration                                 : 1 h 39 min
Bit rate                                 : 10 000 kb/s
Width                                    : 1 920 pixels
Height                                   : 804 pixels
Display aspect ratio                     : 2.40:1
Frame rate mode                          : Constant
Frame rate                               : 24.000 FPS
Color space                              : YUV
Chroma subsampling                       : 4:2:0
Bit depth                                : 8 bits
Scan type                                : Progressive
Bits/(Pixel*Frame)                       : 0.270
Stream size                              : 6.92 GiB (91%)
Title                                    : Encoded by seleZen
Writing library                          : core 142 r2431+42 c69a006 tMod [[email protected] X86_64]
Encoding settings                        : cabac=1 / ref=5 / deblock=1:-2:-2 / analyse=0x3:0x133 / me=umh / subme=10 / psy=1 / fade_compensate=0.00 / psy_rd=1.00:0.00 / mixed_ref=1 / me_range=32 / chroma_me=1 / trellis=2 / 8x8dct=1 / cqm=0 / deadzone=21,11 / fast_pskip=0 / chroma_qp_offset=-2 / threads=24 / lookahead_threads=4 / sliced_threads=0 / nr=0 / decimate=0 / interlaced=0 / bluray_compat=0 / constrained_intra=0 / fgo=0 / bframes=8 / b_pyramid=2 / b_adapt=2 / b_bias=0 / direct=3 / weightb=1 / open_gop=0 / weightp=2 / keyint=240 / keyint_min=24 / scenecut=40 / intra_refresh=0 / rc_lookahead=50 / rc=2pass / mbtree=0 / bitrate=10000 / ratetol=1.0 / qcomp=0.60 / qpmin=0:0:0 / qpmax=51:51:51 / qpstep=4 / cplxblur=20.0 / qblur=0.5 / vbv_maxrate=50000 / vbv_bufsize=62500 / nal_hrd=none / filler=0 / ip_ratio=1.40 / pb_ratio=1.30 / aq=3:0.80 / aq-sensitivity=10.00 / aq-factor=1.00:1.00:1.00 / aq2=0 / aq3=0
Language                                 : English
Default                                  : Yes
Forced                                   : No

Audio #1
ID                                       : 2
Format                                   : AC-3
Format/Info                              : Audio Coding 3
Commercial name                          : Dolby Digital
Codec ID                                 : A_AC3
Duration                                 : 1 h 39 min
Bit rate mode                            : Constant
Bit rate                                 : 384 kb/s
Channel(s)                               : 6 channels
Channel layout                           : L R C LFE Ls Rs
Sampling rate                            : 48.0 kHz
Frame rate                               : 31.250 FPS (1536 SPF)
Bit depth                                : 16 bits
Compression mode                         : Lossy
Stream size                              : 272 MiB (3%)
Title                                    : 48 kHz, , 5.1, 384 Kbps
Language                                 : Ukrainian
Service kind                             : Complete Main
Default                                  : Yes
Forced                                   : No

Audio #2
ID                                       : 3
Format                                   : AC-3
Format/Info                              : Audio Coding 3
Commercial name                          : Dolby Digital
Codec ID                                 : A_AC3
Duration                                 : 1 h 39 min
Bit rate mode                            : Constant
Bit rate                                 : 640 kb/s
Channel(s)                               : 6 channels
Channel layout                           : L R C LFE Ls Rs
Sampling rate                            : 48.0 kHz
Frame rate                               : 31.250 FPS (1536 SPF)
Bit depth                                : 16 bits
Compression mode                         : Lossy
Stream size                              : 454 MiB (6%)
Title                                    : 48 kHz, , 5.1, 640 Kbps
Language                                 : English
Service kind                             : Complete Main
Default                                  : No
Forced                                   : No

Text
ID                                       : 4
Format                                   : UTF-8
Codec ID                                 : S_TEXT/UTF8
Codec ID/Info                            : UTF-8 Plain Text
Duration                                 : 1 h 32 min
Bit rate                                 : 22 b/s
Count of elements                        : 636
Stream size                              : 15.5 KiB (0%)
Title                                    : Full
Language                                 : English
Default                                  : No
Forced                                   : No

Menu
00:00:00.000                             : en:Глава 01
00:09:01.500                             : en:Глава 02
00:19:51.500                             : en:Глава 03
00:29:38.500                             : en:Глава 04
00:38:45.500                             : en:Глава 05
00:49:33.000                             : en:Глава 06
01:02:01.000                             : en:Глава 07
01:10:37.500                             : en:Глава 08
01:20:13.500                             : en:Глава 09
01:30:57.500                             : en:Глава 10
Скріншоти



Джерело:
Особиста оцінка: 0 - не дивився


 Трекер:    Зареєстрований   

Завантажити / скачати фільм українською



відео для новачків



 Зареєстрований:   2020-03-14 19:22
 Розмір:   7.63 GB 
 Оцінка фільму:   8.5/10 (Голосів: 10)
   
Інші релізи
   Кімната бажань / The Room (2019) 1080p H.265 Ukr/Eng | Sub Eng -Star-Lord-  2 / 0   6.41 GB   2020-03-18 19:23 
   Кімната бажань / The Room (2019) Remux 1080p Ukr/Eng | Sub Eng antik_2008  4 / 0   18.81 GB   2020-03-14 19:28 
   Кімната бажань / The Room (2019) antik_2008  12 / 0   1.45 GB   2020-03-14 19:08 
   Кімната бажань / The Room (2019) 720p Ukr/Eng | Sub Eng 11FrYkT  11 / 0   3.62 GB   2020-03-14 13:28 
   Кімната бажань / The Room (2019) AVC Ukr/Eng | Sub Eng 11FrYkT  10 / 0   2.13 GB   2020-03-14 13:25 
Ваш часовий пояс: GMT + 2 Години

Нова тема   Відповісти