Привид будинку на пагорбі / The Haunting (1999) 1080p 2xUkr/Eng | Sub Eng

Нові коментарі

Нова тема   Відповісти
Автор Повідомлення
Anonymous 







2020-03-14 12:54  
Привид будинку на пагорбі / The Haunting (1999) 1080p 2xUkr/Eng | Sub Eng

Привид будинку на пагорбі / The Haunting (1999) 1080p 2xUkr/Eng | Sub Eng


Жанр: жахи, трилер
Країна: США



Кінокомпанія: DreamWorks SKG, Roth-Arnold Productions
Режисер: Ян де Бонт
Актори: Лілі Тейлор, Лайам Нісон, Кетрін Зета-Джонс, Оуен Вілсон, Брюс Дерн, Меріен Селдес, Тодд Філд, Вірджинія Медсен, Майкл Кавана

Сюжет:
Страшні легенди ходять довкола величезного і зловісного маєтка, відомого як «Будинок на пагорбі». Ця похмура і велична будова колись належала заможному текстильному магнатові Х'ю Крейну, ось вже більше століття стоїть порожньою і вважається проклятим місцем. Але саме його для своїх експериментів вибирає фахівець з вивчення сну доктор Марроу. Група з чотирьох людей, які страждають безсонням, яку запросив доктор Марроу, повинна буде провести в страшному будинку декілька днів і ночей. Проте ніхто з учасників цього дивного проекту не передбачав, з яким жахливим кошмаром їм доведеться зіткнутися.


Тривалість: 01:52:42
Якість: 1080p
Відео:
кодек:
розмір кадру: 1920х816
бітрейт: 11.5 Mб/с

Аудіо # 1:
мова: українська
переклад: багатоголосий закадровий ,
кодек: 2.0
бітрейт: 192 кб/с

Аудіо # 2:
мова: українська
переклад: багатоголосий закадровий ,
кодек: 2.0
бітрейт: 192 кб/с

Аудіо # 3:
мова: англійська
переклад: оригінал
кодек: 5.1
бітрейт: 1 509 кб/с

Субтитри:
мова: англійська
тип: програмні (м'які)
формат: *.srt
Info
General
Unique ID : 183564898105693131771961386132582443838 (0x8A19503AFBBD5AAD8DDCE156979C2B3E)
Complete name : H:\Toloka\2020\The Haunting (1999) 1080p.
Format :
Format version : Version 4
File size : 10.5 GiB
Duration : 1 h 52 min
Overall bit rate : 13.4 Mb/s
Encoded date : UTC 2020-03-14 09:40:11
Writing application : v6.1.0 ('Old Devil') built on Mar 4 2013 09:10:42
Writing library : libebml v1.3.0 + v1.4.0

Video
ID : 1
Format : AVC
Format/Info : Advanced Video Codec
Format profile : [email protected]
Format settings : CABAC / 4 Ref Frames
Format settings, CABAC : Yes
Format settings, RefFrames : 4 frames
Codec ID : V_MPEG4/ISO/AVC
Duration : 1 h 52 min
Bit rate : 11.5 Mb/s
Width : 1 920 pixels
Height : 816 pixels
Display aspect ratio : 2.35:1
Frame rate mode : Constant
Frame rate : 23.976 (24000/1001) FPS
Color space : YUV
Chroma subsampling : 4:2:0
Bit depth : 8 bits
Scan type : Progressive
Bits/(Pixel*Frame) : 0.306
Stream size : 8.84 GiB (84%)
Writing library : core 148 r2748 97eaef2
Encoding settings : cabac=1 / ref=4 / deblock=1:-2:-2 / analyse=0x3:0x113 / me=umh / subme=9 / psy=1 / psy_rd=1.00:0.15 / mixed_ref=1 / me_range=16 / chroma_me=1 / trellis=2 / 8x8dct=1 / cqm=0 / deadzone=21,11 / fast_pskip=1 / chroma_qp_offset=-3 / threads=72 / lookahead_threads=3 / sliced_threads=0 / nr=0 / decimate=1 / interlaced=0 / bluray_compat=0 / constrained_intra=0 / bframes=3 / b_pyramid=2 / b_adapt=1 / b_bias=0 / direct=3 / weightb=1 / open_gop=0 / weightp=2 / keyint=250 / keyint_min=25 / scenecut=40 / intra_refresh=0 / rc_lookahead=50 / rc=2pass / mbtree=1 / bitrate=11500 / ratetol=1.0 / qcomp=0.60 / qpmin=0 / qpmax=69 / qpstep=4 / cplxblur=20.0 / qblur=0.5 / vbv_maxrate=31250 / vbv_bufsize=31250 / nal_hrd=none / filler=0 / ip_ratio=1.40 / aq=1:1.00
Language : English
Default : Yes
Forced : No
Statistics Tags Issue : v43.0.0 ('The Quartermaster') 64-bit 2020-03-13 15:09:17 / v6.1.0 ('Old Devil') built on Mar 4 2013 09:10:42 2020-03-14 09:40:11
FromStats_BitRate : 11498179
FromStats_Duration : 01:52:41.547000000
FromStats_FrameCount : 162115
FromStats_StreamSize : 9718184899

Audio #1
ID : 2
Format : AC-3
Format/Info : Audio Coding 3
Commercial name : Dolby Digital
Codec ID : A_AC3
Duration : 1 h 52 min
Bit rate mode : Constant
Bit rate : 192 kb/s
Channel(s) : 2 channels
Channel layout : L R
Sampling rate : 48.0 kHz
Frame rate : 31.250 FPS (1536 SPF)
Bit depth : 16 bits
Compression mode : Lossy
Stream size : 155 MiB (1%)
Title : UKR (Новий, ICTV)
Language : Ukrainian
Service kind : Complete Main
Default : Yes
Forced : Yes

Audio #2
ID : 3
Format : AC-3
Format/Info : Audio Coding 3
Commercial name : Dolby Digital
Codec ID : A_AC3
Duration : 1 h 52 min
Bit rate mode : Constant
Bit rate : 192 kb/s
Channel(s) : 2 channels
Channel layout : L R
Sampling rate : 48.0 kHz
Frame rate : 31.250 FPS (1536 SPF)
Bit depth : 16 bits
Compression mode : Lossy
Stream size : 155 MiB (1%)
Title : UKR (Інтер, НТН)
Language : Ukrainian
Service kind : Complete Main
Default : No
Forced : No

Audio #3
ID : 4
Format :
Format/Info : Digital Theater Systems
Codec ID : A_DTS
Duration : 1 h 52 min
Bit rate mode : Constant
Bit rate : 1 509 kb/s
Channel(s) : 6 channels
Channel layout : C L R Ls Rs LFE
Sampling rate : 48.0 kHz
Frame rate : 93.750 FPS (512 SPF)
Bit depth : 24 bits
Compression mode : Lossy
Stream size : 1.19 GiB (11%)
Title : ENG
Language : English
Default : No
Forced : No
Statistics Tags Issue : v43.0.0 ('The Quartermaster') 64-bit 2020-03-13 15:09:17 / v6.1.0 ('Old Devil') built on Mar 4 2013 09:10:42 2020-03-14 09:40:11
FromStats_BitRate : 1509000
FromStats_Duration : 01:52:41.568000000
FromStats_FrameCount : 633897
FromStats_StreamSize : 1275400764

Text
ID : 5
Format : UTF-8
Codec ID : S_TEXT/UTF8
Codec ID/Info : UTF-8 Plain Text
Title : ENG
Language : English
Default : Yes
Forced : No
Statistics Tags Issue : v43.0.0 ('The Quartermaster') 64-bit 2020-03-13 15:09:17 / v6.1.0 ('Old Devil') built on Mar 4 2013 09:10:42 2020-03-14 09:40:11
FromStats_BitRate : 53
FromStats_Duration : 01:44:49.022000000
FromStats_FrameCount : 1302
FromStats_StreamSize : 42112

Menu
00:00:00.000 : en:Chapter 01
00:00:26.860 : en:Chapter 02
00:09:37.619 : en:Chapter 03
00:19:55.152 : en:Chapter 04
00:32:04.506 : en:Chapter 05
00:37:45.930 : en:Chapter 06
00:48:21.816 : en:Chapter 07
00:58:54.030 : en:Chapter 08
01:06:20.935 : en:Chapter 09
01:16:59.657 : en:Chapter 10
01:25:03.056 : en:Chapter 11
01:38:03.711 : en:Chapter 12
01:46:40.728 : en:Chapter 13
Скріншоти







За доріжки подяка п.: xslim, Arsenfpu
Особиста подяка пану denixx за надану матеріальну допомогу на підтримку цього і майбутніх релізів.
Джерело:


Срібний реліз (на рейтинг впливає 50% завантаженого)
 Трекер:    Зареєстрований   

Завантажити / скачати фільм українською



відео для новачків



 Зареєстрований:   2020-03-14 12:54
 Розмір:   10.54 GB 
 Оцінка фільму:   9.4/10 (Голосів: 7)
   
MakRA 
VIP


З нами з: 11.11.18
Востаннє: 21.09.20
Повідомлень: 1119

2020-03-14 12:56  
Ех, випередили мене. Добре, дякую 🤗
Ваш часовий пояс: GMT + 2 Години

Нова тема   Відповісти