Детройт / Detroit (2017) AVC Ukr/Eng | sub Eng

Нові коментарі

Нова тема   Відповісти
Автор Повідомлення
Arsenfpu 
Відео Гуртом - фільмокрай
Відео Гуртом - фільмокрай


З нами з: 30.04.09
Востаннє: 28.05.20
Повідомлень: 6921

2020-03-14 12:46  
Детройт / Detroit (2017) AVC Ukr/Eng | sub Eng

Детройт / Detroit (2017) AVC Ukr/Eng | sub Eng


Жанр: трилер, драма, кримінальний, історичний
Країна: США



Кінокомпанія: Annapurna Pictures, First Light Production, Page 1
Режисер: Кетрін Бігелоу
Актори: Джон Боєга, Вілл Поултер, Елджі Сміт, Джейкоб Латімор, Джейсон Мітчелл, Ханна Мюррей, Джек Рейнор, Кейтлін Дівер, Бен Пітер О'Тул, Джон Красінскі

Сюжет:
Сюжет розповість про реальну історичну подію, приводом для якої став поліцейський рейд в Детройті в липні 1967 року. Рейд привів до одного з найбільших повстань на території Сполучених Штатів, в результаті якого десятки тисяч розлючених жителів вийшли з-під контролю влади, а місто накрила хвиля крові, насильства і нальотів. Наслідком руйнівних заворушень стала загибель 43 осіб.


Тривалість: 02:23:00
Якість:
Відео:
кодек:
розмір кадру: 1 024 х 560
бітрейт: 2 299 кб/с

Аудіо # 1:
мова: українська
переклад: багатоголосий закадровий
кодек: 2.0
бітрейт: 192 кб/с

Аудіо # 2:
мова: англійська
переклад: оригінал
кодек: 2.0
бітрейт: 192 кб/с

Субтитри:
мова: англійська
тип: програмні (м'які)
формат: *.srt
Скріншоти














Про файл
General
Unique ID : 142357310547194601391600300906877790551 (0x6B19054DCF360488F96C4C1E1227A957)
Complete name : C:\Detroit (2017) [Ukr,Eng] AVC [Hurtom].
Format :
Format version : Version 4 / Version 2
File size : 2.68 GiB
Duration : 2 h 23 min
Overall bit rate : 2 685 kb/s
Movie name : Детройт / Detroit (2017)
Encoded date : UTC 2020-03-14 09:03:04
Writing application : v21.0.0 ('Tardigrades Will Inherit The Earth') 32-bit
Writing library : libebml v1.3.5 + v1.4.8
Cover : Yes
Attachments : cover.jpg

Video
ID : 1
Format : AVC
Format/Info : Advanced Video Codec
Format profile : [email protected]
Format settings, CABAC : Yes
Format settings, ReFrames : 4 frames
Codec ID : V_MPEG4/ISO/AVC
Duration : 2 h 23 min
Bit rate : 2 299 kb/s
Width : 1 024 pixels
Height : 560 pixels
Display aspect ratio : 1.85:1
Frame rate mode : Constant
Frame rate : 23.976 (24000/1001) FPS
Color space : YUV
Chroma subsampling : 4:2:0
Bit depth : 8 bits
Scan type : Progressive
Bits/(Pixel*Frame) : 0.167
Stream size : 2.30 GiB (86%)
Writing library : core 157 r2935 545de2f
Encoding settings : cabac=1 / ref=3 / deblock=1:-1:-1 / analyse=0x3:0x113 / me=hex / subme=7 / psy=1 / psy_rd=1.00:0.15 / mixed_ref=1 / me_range=16 / chroma_me=1 / trellis=1 / 8x8dct=1 / cqm=0 / deadzone=21,11 / fast_pskip=1 / chroma_qp_offset=-3 / threads=12 / lookahead_threads=2 / sliced_threads=0 / nr=0 / decimate=1 / interlaced=0 / bluray_compat=0 / constrained_intra=0 / bframes=3 / b_pyramid=2 / b_adapt=1 / b_bias=0 / direct=1 / weightb=1 / open_gop=0 / weightp=2 / keyint=240 / keyint_min=23 / scenecut=40 / intra_refresh=0 / rc_lookahead=40 / rc=2pass / mbtree=1 / bitrate=2299 / ratetol=1.0 / qcomp=0.60 / qpmin=0 / qpmax=69 / qpstep=4 / cplxblur=20.0 / qblur=0.5 / ip_ratio=1.40 / aq=1:1.00
Default : Yes
Forced : No

Audio #1
ID : 2
Format : AC-3
Format/Info : Audio Coding 3
Mode extension : CM (complete main)
Format settings, Endianness : Big
Codec ID : A_AC3
Duration : 2 h 23 min
Bit rate mode : Constant
Bit rate : 192 kb/s
Channel(s) : 2 channels
Channel positions : Front: L R
Sampling rate : 48.0 kHz
Frame rate : 31.250 FPS (1536 spf)
Compression mode : Lossy
Stream size : 196 MiB (7%)
Title : Новий
Language : Ukrainian
Default : Yes
Forced : Yes

Audio #2
ID : 3
Format : AC-3
Format/Info : Audio Coding 3
Mode extension : CM (complete main)
Format settings, Endianness : Big
Codec ID : A_AC3
Duration : 2 h 23 min
Bit rate mode : Constant
Bit rate : 192 kb/s
Channel(s) : 2 channels
Channel positions : Front: L R
Sampling rate : 48.0 kHz
Frame rate : 31.250 FPS (1536 spf)
Compression mode : Lossy
Stream size : 196 MiB (7%)
Language : English
Default : No
Forced : No

Text
ID : 4
Format : UTF-8
Codec ID : S_TEXT/UTF8
Codec ID/Info : UTF-8 Plain Text
Duration : 2 h 13 min
Bit rate : 63 b/s
Count of elements : 2187
Stream size : 62.1 KiB (0%)
Language : English
Default : Yes
Forced : No
Джерело:
За запис з ТБ дякую пану Bohdan237
За постер дякую пану mrgalser
Особиста оцінка: не дивився


 Трекер:    Зареєстрований   

Завантажити / скачати фільм українською



відео для новачків



 Зареєстрований:   2020-03-14 12:46
 Розмір:   2.68 GB 
 Оцінка фільму:   9.8/10 (Голосів: 18)
   
Інші релізи
   Детройт / Detroit (2017) Remux 1080p Ukr/Eng | Sub Eng kryk-v.ya.  3 / 0   37.04 GB   2019-08-03 18:18 
   Детройт / Detroit (2017) AVC Ukr/Eng | Sub Eng Sando7  7 / 0   3.61 GB   2019-08-03 12:15 
   Детройт / Detroit (2017) 1080p Ukr/Eng | Sub Eng staf777  5 / 0   17.34 GB   2019-08-03 09:13 
   Детройт / Detroit (2017) 720p Ukr/Eng | Sub Eng staf777  3 / 0   7.82 GB   2019-08-02 22:58 
   Детройт / Detroit (2017) Ukr/Eng drop_plz  9 / 0   1.93 GB   2019-08-02 14:53 
masiff 
Свій


З нами з: 06.12.16
Востаннє: 25.05.20
Повідомлень: 117

2020-03-18 17:35  
Як стрічка..??? Сподіваюся, Не актуально
+380954897458 
VIP


З нами з: 02.06.17
Востаннє: 28.05.20
Повідомлень: 840

2020-03-18 19:15  
masiff
Мені стрічка дуже сподобалася. Кетрін Бігелоу режисер талановитий (чи режисерка талановита), одна з улюблених, кожен фільм якої - подія для мене. У фільмі практично нема слабких сторін, все там в міру і все дозовано в кількостях, достатніх для того, щоб не здатися занудним моралізаторством. Але якщо Вам не подобаються стрічки про расову дискримінацію, що мала місце в не дуже далекому минулому, то краще не дивіться.

подвох 
Частий відвідувач


З нами з: 29.03.18
Востаннє: 28.05.20
Повідомлень: 38

2020-03-18 22:44  
сильно
takispravi2 
Новенький


З нами з: 15.01.20
Востаннє: 25.05.20
Повідомлень: 3

2020-03-22 14:23  
Нудота
Ваш часовий пояс: GMT + 2 Години

Нова тема   Відповісти