Авантюрист (Авантюристи) / Les morfalous (1984) AVC 2xUkr/Fre | Sub Fre

Нові коментарі

Нова тема   Відповісти
Автор Повідомлення
Arsenfpu 
Відео Гуртом - фільмокрай
Відео Гуртом - фільмокрай


З нами з: 30.04.09
Востаннє: 11.07.20
Повідомлень: 7051

2020-03-14 01:20  
Авантюрист (Авантюристи) / Les morfalous (1984) AVC 2xUkr/Fre | Sub Fre

Авантюрист (Авантюристи) / Les morfalous (1984) AVC 2xUkr/Fre | Sub Fre


Жанр: екшн, комедія, драма
Країна: Франція



Кінокомпанія: StudioCanal
Режисер: Анрі Верней
Актори: Жан-Поль Бельмондо, Жак Вільре, Мішель Константен, Марі Лафоре, Мішель Кретон, Матіас Абіш, Франсуа Перо, Моріс Озель, Мішель Бон, П'єр Землер

Сюжет:
Під час Другої світової війни у квітні 1943-року французькі війська вибили німців з маленького туніського містечка Ель-Ксур. У сейфі міського банку знаходилася велика кількість золотих злитків вартістю 6 мільярдів доларів. Оскільки у містечку не залишилося жодної живої душі, для перевезення цього золота у безпечне місце — до Сфаксу, послали спеціальний автомобіль у супроводі двох вантажівок з бійцями іноземного легіону для супроводу та охорони. Коли конвой прибув на місце, та був несподівано майже повністю знищений німецьким підрозділом — 4-тою ротою під командуванням капітана Ульріха Дітерле (П'єр Землер), яка невідомо як опинилася у місцевій фортеці. Живими залишилися тільки унтер офіцер Едуард Маюзар (Мішель Константен), сержант П'єр Оганьєр (Жан-Поль Бельмондо), легіонер Буасьє (Мішель Кретон). До них приєднався вцілілий артилерист — капрал Бераль (Жак Вільре). Вночі сержантові Оганьєру та артилеристові Бералю за допомогою вцілілої гаубиці вдалося знищити німецький підрозділ. В умовах, що склалися, Оганьєр та Буасьє запропонували поділити усе золото на чотирьох. З цим категорично не погоджується унтер офіцер Маюзар, який бере командування на себе і погрожує трибуналом. Що ж буде далі та де опиниться золото?


Тривалість: 01:46:27
Якість:
Відео:
кодек:
розмір кадру: 1 024 х 624
бітрейт: 2 499 кб/с

Аудіо # 1:
мова: українська
переклад: багатоголосий закадровий
кодек: 2.0
бітрейт: 192 кб/с

Аудіо # 2:
мова: українська
переклад: багатоголосий закадровий
кодек: 2.0
бітрейт: 192 кб/с
примітка: так як телеканал завзято пошинкував трансляцію, то присутні вставки із першої доріжки
Аудіо # 3:
мова: французька
переклад: оригінал
кодек: 2.0
бітрейт: 192 кб/с

Субтитри:
мова: французька
тип: програмні (м'які)
формат: *.srt
Скріншоти














Про файл
General
Unique ID : 178267343065729334263051903177054712419 (0x861D0A99F46EB89F767441F3AC8B7263)
Complete name : C:\Les morfalous (1984) [2xUkr,Fra] AVC [Hurtom].
Format :
Format version : Version 4 / Version 2
File size : 2.29 GiB
Duration : 1 h 46 min
Overall bit rate : 3 085 kb/s
Movie name : Авантюрист (Авантюристи) / Les morfalous (1984)
Encoded date : UTC 2020-03-13 21:45:08
Writing application : v21.0.0 ('Tardigrades Will Inherit The Earth') 32-bit
Writing library : libebml v1.3.5 + v1.4.8
Cover : Yes
Attachments : cover.jpg

Video
ID : 1
Format : AVC
Format/Info : Advanced Video Codec
Format profile : [email protected]
Format settings, CABAC : Yes
Format settings, ReFrames : 4 frames
Codec ID : V_MPEG4/ISO/AVC
Duration : 1 h 46 min
Bit rate : 2 499 kb/s
Width : 1 024 pixels
Height : 624 pixels
Display aspect ratio : 16:10
Frame rate mode : Constant
Frame rate : 24.000 FPS
Color space : YUV
Chroma subsampling : 4:2:0
Bit depth : 8 bits
Scan type : Progressive
Bits/(Pixel*Frame) : 0.163
Stream size : 1.86 GiB (81%)
Writing library : core 157 r2935 545de2f
Encoding settings : cabac=1 / ref=3 / deblock=1:-1:-1 / analyse=0x3:0x113 / me=hex / subme=7 / psy=1 / psy_rd=1.00:0.15 / mixed_ref=1 / me_range=16 / chroma_me=1 / trellis=1 / 8x8dct=1 / cqm=0 / deadzone=21,11 / fast_pskip=1 / chroma_qp_offset=-3 / threads=12 / lookahead_threads=2 / sliced_threads=0 / nr=0 / decimate=1 / interlaced=0 / bluray_compat=0 / constrained_intra=0 / bframes=3 / b_pyramid=2 / b_adapt=1 / b_bias=0 / direct=1 / weightb=1 / open_gop=0 / weightp=2 / keyint=240 / keyint_min=24 / scenecut=40 / intra_refresh=0 / rc_lookahead=40 / rc=2pass / mbtree=1 / bitrate=2499 / ratetol=1.0 / qcomp=0.60 / qpmin=0 / qpmax=69 / qpstep=4 / cplxblur=20.0 / qblur=0.5 / ip_ratio=1.40 / aq=1:1.00
Default : Yes
Forced : No

Audio #1
ID : 2
Format : AC-3
Format/Info : Audio Coding 3
Mode extension : CM (complete main)
Format settings, Endianness : Big
Codec ID : A_AC3
Duration : 1 h 46 min
Bit rate mode : Constant
Bit rate : 192 kb/s
Channel(s) : 2 channels
Channel positions : Front: L R
Sampling rate : 48.0 kHz
Frame rate : 31.250 FPS (1536 spf)
Compression mode : Lossy
Stream size : 146 MiB (6%)
Title : Україна
Language : Ukrainian
Default : Yes
Forced : Yes

Audio #2
ID : 3
Format : AC-3
Format/Info : Audio Coding 3
Mode extension : CM (complete main)
Format settings, Endianness : Big
Codec ID : A_AC3
Duration : 1 h 46 min
Bit rate mode : Constant
Bit rate : 192 kb/s
Channel(s) : 2 channels
Channel positions : Front: L R
Sampling rate : 48.0 kHz
Frame rate : 31.250 FPS (1536 spf)
Compression mode : Lossy
Stream size : 146 MiB (6%)
Title : Інтер
Language : Ukrainian
Default : No
Forced : No

Audio #3
ID : 4
Format : AC-3
Format/Info : Audio Coding 3
Mode extension : CM (complete main)
Format settings, Endianness : Big
Codec ID : A_AC3
Duration : 1 h 46 min
Bit rate mode : Constant
Bit rate : 192 kb/s
Channel(s) : 2 channels
Channel positions : Front: L R
Sampling rate : 48.0 kHz
Frame rate : 31.250 FPS (1536 spf)
Compression mode : Lossy
Stream size : 146 MiB (6%)
Language : French
Default : No
Forced : No

Text
ID : 5
Format : PGS
Muxing mode : zlib
Codec ID : S_HDMV/PGS
Codec ID/Info : Picture based subtitle format used on BDs/HD-DVDs
Duration : 1 h 46 min
Bit rate : 27.3 kb/s
Count of elements : 2088
Stream size : 20.8 MiB (1%)
Language : French
Default : Yes
Forced : No
Джерело:
За доріжку від України дякую п. Bohdan237, ssTAss
За запис з Інтера дякую пану Bohdan237
За постер дякую пану підпільник
Особиста оцінка: гарне кіно


Срібний реліз (на рейтинг впливає 50% завантаженого)
 Трекер:    Зареєстрований   

Завантажити / скачати фільм українською



відео для новачків



 Зареєстрований:   2020-03-14 01:20
 Розмір:   2.29 GB 
 Оцінка фільму:   8.8/10 (Голосів: 11)
   
Інші релізи
MakRA 
VIP


З нами з: 11.11.18
Востаннє: 11.07.20
Повідомлень: 1085

2020-03-14 02:43  
+ Remux 1080p
Супер. Дякую!

Ваш часовий пояс: GMT + 2 Години

Нова тема   Відповісти