Полдарк / Poldark (Сезон 1-5) (2015-2019) AVC Ukr/Eng | Sub Eng

Нові коментарі

Нова тема   Відповісти
Автор Повідомлення
sergiyko.5 
VIP


З нами з: 25.02.16
Востаннє: 08.07.20
Повідомлень: 3241

2020-03-13 20:17  


Полдарк / Poldark (Сезон 1-5) (2015-2019) AVC Ukr/Eng | Sub Eng


Полдарк / Poldark (Сезон 1-5) (2015-2019) AVC Ukr/Eng | Sub Eng

Жанр: драма, мелодрама, історичний
Країна: Велика Британія
Кінокомпанія: Mammoth Screen
Режисер: Джосс Егнью, Селлі Апрахаміан, Едвард Базалгетт
Актори: Ейдан Тернер, Елінор Томлінсон, Джек Фартінг, Беті Едні, Трістан Старрок, Люк Норріс, Хейда Рід, Габріелла Уайлд, Піп Торренс, Керолайн Блекістон

Сюжет:
Сюжет серіалу заснований на історії Росса Полдарка, який повертається після війни додому. Тут він дізнається, що батько помер, а на фермі заправляють п'яниці слуги. Крім цього, наречена головного героя побралася з його кузеном, так як думала, що Полдарк помер.




Тривалість: 1 серія: 59:00 (цілком серій: 8+10+9+8+8 з 43)
Якість:

Відео: кодек: розмір кадру: 1024x576 бітрейт: 1550 кб/с
Аудіо # 1: мова: українська переклад: двоголосий закадровий кодек: 2.0 бітрейт: 192 кб/с
Озвучення: (Михайло Войчук і Ольга Гриськова)
Аудіо # 2: мова: англійська переклад: оригінал кодек: бітрейт: 384 кб/с
Субтитри: мова: англійська тип: програмні (м'які) формат: *.srt
Перелік серій
Сезон 1
епізод 01
епізод 02
епізод 03
епізод 04
епізод 05
епізод 06
епізод 07
епізод 08

Сезон 2
епізод 01
епізод 02
епізод 03
епізод 04
епізод 05
епізод 06
епізод 07
епізод 08
епізод 09
епізод 10

Сезон 3
епізод 01
епізод 02
епізод 03
епізод 04
епізод 05
епізод 06
епізод 07
епізод 08
епізод 09

Сезон 4
епізод 01
епізод 02
епізод 03
епізод 04
епізод 05
епізод 06
епізод 07
епізод 08

Сезон 5
епізод 01
епізод 02
епізод 03
епізод 04
епізод 05
епізод 06
епізод 07
епізод 08
Про файл:
General
Unique ID : 1604846299565787801401192839430721125 (0x135150812E849C14686E88BFB76CE65)
Complete name : D:\Documents\Torrents\Rizne\Poldark \Poldark S01 \Poldark.S01E02.2015..
Format :
Format version : Version 4
File size : 871 MiB
Duration : 57 min 16 s
Overall bit rate : 2 127 kb/s
Movie name : Poldark S01 by sergiyko
Encoded date : UTC 2020-03-10 21:18:49
Writing application : v44.0.0 ('Domino') 64-bit
Writing library : libebml v1.3.10 + v1.5.2

Video
ID : 1
Format : AVC
Format/Info : Advanced Video Codec
Format profile : [email protected]
Format settings : CABAC / 7 Ref Frames
Format settings, CABAC : Yes
Format settings, Reference : 7 frames
Codec ID : V_MPEG4/ISO/AVC
Duration : 57 min 16 s
Bit rate : 1 549 kb/s
Width : 1 024 pixels
Height : 576 pixels
Display aspect ratio : 16:9
Frame rate mode : Constant
Frame rate : 25.000 FPS
Color space : YUV
Chroma subsampling : 4:2:0
Bit depth : 8 bits
Scan type : Progressive
Bits/(Pixel*Frame) : 0.105
Stream size : 634 MiB (73%)
Title : Poldark.S01E02
Writing library : core 157 r2970 5493be8
Encoding settings : cabac=1 / ref=7 / deblock=1:-1:-1 / analyse=0x3:0x133 / me=umh / subme=10 / psy=1 / psy_rd=1.00:0.15 / mixed_ref=1 / me_range=24 / chroma_me=1 / trellis=2 / 8x8dct=1 / cqm=0 / deadzone=21,11 / fast_pskip=1 / chroma_qp_offset=-3 / threads=18 / lookahead_threads=3 / sliced_threads=0 / nr=0 / decimate=1 / interlaced=0 / bluray_compat=0 / constrained_intra=0 / bframes=8 / b_pyramid=2 / b_adapt=2 / b_bias=0 / direct=3 / weightb=1 / open_gop=0 / weightp=2 / keyint=250 / keyint_min=25 / scenecut=40 / intra_refresh=0 / rc_lookahead=60 / rc=crf / mbtree=1 / crf=19.0 / qcomp=0.60 / qpmin=0 / qpmax=69 / qpstep=4 / ip_ratio=1.40 / aq=1:1.00
Language : English
Default : Yes
Forced : No

Audio #1
ID : 2
Format : AC-3
Format/Info : Audio Coding 3
Commercial name : Dolby Digital
Codec ID : A_AC3
Duration : 57 min 16 s
Bit rate mode : Constant
Bit rate : 192 kb/s
Channel(s) : 2 channels
Channel layout : L R
Sampling rate : 48.0 kHz
Frame rate : 31.250 FPS (1536 SPF)
Compression mode : Lossy
Stream size : 78.7 MiB (9%)
Title : MOV 2ch | UA Культура
Language : Ukrainian
Service kind : Complete Main
Default : Yes
Forced : Yes

Audio #2
ID : 3
Format : AC-3
Format/Info : Audio Coding 3
Commercial name : Dolby Digital
Codec ID : A_AC3
Duration : 57 min 16 s
Bit rate mode : Constant
Bit rate : 384 kb/s
Channel(s) : 2 channels
Channel layout : L R
Sampling rate : 48.0 kHz
Frame rate : 31.250 FPS (1536 SPF)
Compression mode : Lossy
Stream size : 157 MiB (18%)
Title : Original
Language : English
Service kind : Complete Main
Default : No
Forced : No

Text
ID : 4
Format : UTF-8
Codec ID : S_TEXT/UTF8
Codec ID/Info : UTF-8 Plain Text
Duration : 56 min 35 s
Bit rate : 58 b/s
Count of elements : 825
Stream size : 24.4 KiB (0%)
Title : English, SRT
Language : English
Default : No
Forced : No

Menu
00:00:00.000 : uk:Розділ 05
00:14:23.640 : uk:Розділ 06
00:28:58.600 : uk:Розділ 07
00:45:05.040 : uk:Розділ 08
Скріншоти:


Запис звуку/зведення/ріп відео: sergiyko


Бронзовий реліз (на рейтинг впливає 75% завантаженого)
 Трекер:    Зареєстрований   

Завантажити / скачати серіал українською



відео для новачків



 Зареєстрований:   2020-04-26 17:35
 Розмір:   35.02 GB 
 Оцінка серіалу:   9.3/10 (Голосів: 23)
   
Nikko033 
VIP


З нами з: 31.12.12
Востаннє: 07.07.20
Повідомлень: 619

2020-03-18 00:10  
ух ти! будуть ще сезони?
sergiyko.5 
VIP


З нами з: 25.02.16
Востаннє: 08.07.20
Повідомлень: 3241

2020-03-18 09:17  
Nikko033
Зараз пишу другий сезон.

sergiyko.5 
VIP


З нами з: 25.02.16
Востаннє: 08.07.20
Повідомлень: 3241

2020-03-19 19:18  
Додав другий сезон. Перекачайте торент.
Nikko033 
VIP


З нами з: 31.12.12
Востаннє: 07.07.20
Повідомлень: 619

2020-03-20 01:07  
sergiyko.5 клас! дякую Happy
toma1408 
VIP


З нами з: 28.08.10
Востаннє: 04.07.20
Повідомлень: 308

2020-03-21 07:34  
Ванільно-рожева туфта для домогосподарок, починалося все, загалом, не так вже й погано, але від серії до серії, від сезону до сезону видовище ставало все більш жалюгідним. 4/10
Electroz 
Відео Гуртом - підтримка та поширення
Відео Гуртом - підтримка та поширення


З нами з: 18.09.14
Востаннє: 08.07.20
Повідомлень: 3948

2020-04-26 17:24  
sergiyko.5
До авц будуть додані всі сезони?

sergiyko.5 
VIP


З нами з: 25.02.16
Востаннє: 08.07.20
Повідомлень: 3241

2020-04-26 17:38  
Торент оновлено. Додав 3-5 сезони.

Проект роботи з серіалом завершено. Приємного перегляду!

don pedro 
Попереджень: 1
Попереджень: 1 


З нами з: 29.06.11
Востаннє: 09.07.20
Повідомлень: 17172

2020-06-03 19:17  
Книги-першоджерело цього серіалу пера Вінстона Грема вийшли українською:

https://fabulabook.com/writer/winston-graham/

Ваш часовий пояс: GMT + 2 Години

Нова тема   Відповісти