Заплутана історія / Tangled: The Series (Сезон 1) (2017) 1080p Ukr/Eng

Нові коментарі

Нова тема   Відповісти
Автор Повідомлення
sergiyko.5 
Забанено
Забанено


З нами з: 25.02.16
Востаннє: 29.10.20
Повідомлень: 3648

2020-03-13 15:42  


Заплутана історія / Tangled: The Series (Сезон 1) (2017) 1080p Ukr/Eng


Заплутана історія / Tangled: The Series (Сезон 1) (2017) 1080p Ukr/Eng

Жанр: пригоди, комедія
Країна: США
Режисер: Том Колфілд, Стівен Сандовал, Джо О

Сюжет:
Рапунцель близько спілкується з батьками, коханим Людвигом, конем Максимусом та ексцентричним хамелеоном Паскалем. На її шляху доволі часто з’являються труднощі, та вона готова до всього, бо поряд завжди є вірні друзі та коханий. Вас чекає знайомство з Касандрою, надійною подругою з крутим норовом, розбійниками із таверни «Швидке каченя» та багатьма іншими цікавими особистостями.




Тривалість: 1 серія: 22:37 (цілком серій: 22 з 1+21)
Якість:

Відео: кодек: розмір кадру: 1920 х 1080 бітрейт: 5100 кб/с
Аудіо : мова: українська переклад: професійний дубльований кодек: 2.0 бітрейт: 192 кб/с
Озвучення:
Аудіо : мова: англійська переклад: оригінал кодек: 5.1 бітрейт: 384 кб/с
Перелік серій
00 Before Ever After
01 What the Hair!?
02 Rapunzel's Enemy
03 Fitzherbert P.I
04 Challenge of the Brave
05 Cassandra v. Eugene
06 The Return of Strongbow
07 In Like Flynn
08 Great Expotations
09 Under Raps
10 One Angry Princess
11 Pascal's Story
12 Big Brothers of Corona
13 The Wrath of Ruthless Ruth
14 Max's Enemy
15 The Way of the Willow
16 Queen for a Day (полный эпизод)
17 Painter's Block
18 Not in the Mood
19 The Quest for Varian
20 The Alchemist Returns
21 Secret of the Sundrop
Про файл:
General
Unique ID : 34510238697773988657143480666269923034 (0x19F66E22375FE356AE1EE6CDF74BB6DA)
Complete name : D:\Documents\Torrents\Rizne\Tangled. The Series S01 1080p \S01E01.What.the.Hair.1080p..
Format :
Format version : Version 4
File size : 923 MiB
Duration : 22 min 36 s
Overall bit rate : 5 707 kb/s
Movie name : Tangled. The Series S01 1080p by sergiyko
Encoded date : UTC 2020-03-13 12:28:36
Writing application : v44.0.0 ('Domino') 64-bit
Writing library : libebml v1.3.10 + v1.5.2

Video
ID : 1
Format : AVC
Format/Info : Advanced Video Codec
Format profile : [email protected]
Format settings : CABAC / 4 Ref Frames
Format settings, CABAC : Yes
Format settings, Reference : 4 frames
Codec ID : V_MPEG4/ISO/AVC
Duration : 22 min 36 s
Bit rate : 5 129 kb/s
Width : 1 920 pixels
Height : 1 080 pixels
Display aspect ratio : 16:9
Frame rate mode : Constant
Frame rate : 23.976 (24000/1001) FPS
Color space : YUV
Chroma subsampling : 4:2:0
Bit depth : 8 bits
Scan type : Progressive
Bits/(Pixel*Frame) : 0.103
Stream size : 829 MiB (90%)
Title : S01E01.What.the.Hair
Language : English
Default : Yes
Forced : No
Color range : Limited
Color primaries : BT.709
Transfer characteristics : BT.709
Matrix coefficients : BT.709

Audio #1
ID : 2
Format : AC-3
Format/Info : Audio Coding 3
Commercial name : Dolby Digital
Codec ID : A_AC3
Duration : 22 min 36 s
Bit rate mode : Constant
Bit rate : 192 kb/s
Channel(s) : 2 channels
Channel layout : L R
Sampling rate : 48.0 kHz
Frame rate : 31.250 FPS (1536 SPF)
Compression mode : Lossy
Stream size : 31.1 MiB (3%)
Title : DUB 2ch | ПлюсПлюс
Language : Ukrainian
Service kind : Complete Main
Default : Yes
Forced : Yes

Audio #2
ID : 3
Format : AC-3
Format/Info : Audio Coding 3
Commercial name : Dolby Digital
Codec ID : A_AC3
Duration : 22 min 36 s
Bit rate mode : Constant
Bit rate : 384 kb/s
Channel(s) : 6 channels
Channel layout : L R C LFE Ls Rs
Sampling rate : 48.0 kHz
Frame rate : 31.250 FPS (1536 SPF)
Compression mode : Lossy
Stream size : 62.1 MiB (7%)
Title : Original
Language : English
Service kind : Complete Main
Default : No
Forced : No
Скріншоти:


Запис/зведення: sergiyko


Бронзовий реліз (на рейтинг впливає 75% завантаженого)
 Трекер:    Зареєстрований   

Завантажити / скачати мультфільм українською



відео для новачків



 Зареєстрований:   2020-04-04 16:55
 Розмір:   22.82 GB 
 Оцінка мультсеріалу:   9.9/10 (Голосів: 13)
   
sergiyko.5 
Забанено
Забанено


З нами з: 25.02.16
Востаннє: 29.10.20
Повідомлень: 3648

2020-03-21 13:23  
Додав 4-10 серії. Оновіть торент файл.
sergiyko.5 
Забанено
Забанено


З нами з: 25.02.16
Востаннє: 29.10.20
Повідомлень: 3648

2020-04-04 16:57  
Додав 11-21 та пілотну серію Tangled: Before Ever After. Сезон повний. Приємного перегляду!
gokost1k 
Новенький


З нами з: 24.06.09
Востаннє: 12.04.21
Повідомлень: 5

2020-04-08 20:45  
дуже дякую!
xslim 
Відео Гуртом - фільмокрай
Відео Гуртом - фільмокрай


З нами з: 05.03.09
Востаннє: 15.04.21
Повідомлень: 1416

2020-04-20 18:41  
в серії S01E02.Rapunzels.Enemy на відрізку 00:18:18 є якийсь дефект звуку
Danyles1ko 
Новенький


З нами з: 28.01.19
Востаннє: 08.03.21
Повідомлень: 24

2020-05-12 17:49  
Дякую теж! І що потрібно для того щоб дублювати 2 інших сезони? Бо інші сезони вже давно є!
sergiyko.5 
Забанено
Забанено


З нами з: 25.02.16
Востаннє: 29.10.20
Повідомлень: 3648

2020-05-12 18:05  
Danyles1ko написано:
І що потрібно для того щоб дублювати 2 інших сезони?

Danyles1ko,
Озвучення: ТК ПлюсПлюс
Як ви думаєте, що потрібно?

dimaboguhinsky 
Новенький


З нами з: 13.02.20
Востаннє: 12.04.21
Повідомлень: 8

2021-02-20 23:06  
Коли покажуть другий сезон?
ПБВ2309 
Свій


З нами з: 29.11.16
Востаннє: 14.04.21
Повідомлень: 78

2021-02-22 20:41  
Цитата:
«Рапунцель-2» (тобто "Заплутана історія-2") — мультсеріал про героїню Рапунцель з довгим волоссям та заплутаним і насиченим життям. Глядачам сподобається не тільки образ та характер героїні — відважної, дівочої за зовнішністю, а також її друзів Фліна-Райдера, Паскаля, Максимуса та багатьох інших. Що чекає на них у другому сезоні можна буде дізнатися з 26 лютого, щоп’ятниці, о 20:30 на телеканалі ПЛЮСПЛЮС.

Джерело - сайт 1+1 media

Ваш часовий пояс: GMT + 2 Години

Нова тема   Відповісти