Не впіймали - не злодій / Inside Man (2006) 1080p [Open Matte] 3xUkr/Eng | Sub Ukr/Eng

Нові коментарі

Нова тема   Відповісти
Автор Повідомлення
MakRA 
VIP


З нами з: 11.11.18
Востаннє: 01.10.20
Повідомлень: 1120

2020-03-13 14:54  
Не впіймали - не злодій / Inside Man (2006) 1080p [Open Matte] 3xUkr/Eng | Sub Ukr/Eng


Альтернативний український постер:

Жанр: кримінальний, трилер, детектив
Країна: США



Кінокомпанія: Universal Pictures, Imagine Entertainment, 40 Acres & A Mule Filmworks, GH Two
Режисер: Спайк Лі [Spike Lee]
Актори: Дензел Вашинґтон [Denzel Washington], Клайв Овен [Clive Owen], Джоді Фостер [Jodie Foster], Крістофер Пламмер [Christopher Plummer], Віллем Дефо [Willem Dafoe], Чиветел Еджиофор [Chiwetel Ejiofor], Карлос Андрес Ґомес [Carlos Andrés Gómez], Кім Директор [Kim Director], Джеймс Рансон [James Ransone[, Берні Рашель [Bernie Rachelle]

Сюжет:
Зухвале пограбування банку не залишилося без уваги правоохоронців Нью-Йорка. Прибулі на місце копи не виявили ні підозрюваних, ні потерпілих, ні свідків, ні будь-яких доказів...


Тривалість: 02:08:48
Якість: 1080p Open Matte [Amazon]- має більше наповнення кадру в порівнянні з блуреєм
Відео:
кодек:
розмір кадру: 1920 х 1080
бітрейт: 9237 kб/с
примітка: по боках у деяких кадрах картинка трохи обрізана (зліва або справа), також в кадрі іноді присутній логотип "Starz"

Аудіо # 1:
мова: українська
переклад: багатоголосий закадровий
кодек: 2.0 [stereo]
бітрейт: 192 кб/с
Про озвучення:
Ролі озвучили: Дензел Вашингтон - Дмитро Гаврилов, Клайв Оуен - Роман Чорний, Вілем Дефо - Дмитро Завадський, Крістофер Пламмер - Олег Лепенець, а також Андрій Альохін, Михайло Жонін, Олесь Гімбаржевський, Дмитро Терещук, Ярослав Чорненький, Максим Кондратюк та інші.
Аудіо # 2:
мова: українська
переклад: багатоголосий закадровий
кодек: 2.0
бітрейт: 192 кб/с

Аудіо # 3:
мова: українська
переклад: багатоголосий закадровий | студія "Так Треба Продакшн"
кодек: 2.0
бітрейт: 192 кб/с
Про озвучення:
Ролі озвучили: Клайв Овен — Олег Стальчук, Дензел Вашинґтон — Володимир Терещук, Дмитро Терещук, Джоді Фостер — Олена Яблучна і ще один жіночий голос.
Аудіо # 4:
мова: англійська
переклад: оригінал
кодек: 5.1
бітрейт: 1509 кб/с

Аудіо # 5:
мова: англійська
переклад: оригінал
кодек: 5.1
бітрейт: 640 кб/с

Аудіо # 6:
мова: англійська
переклад: коментарі режисера Спайка Лі
кодек: 2.0
бітрейт: 192 кб/с

Субтитри # 1: (Full) | Netflix
мова: українська
тип: програмні (м'які)
формат: *.srt

Субтитри # 2: (Full)
мова: англійська
тип: програмні (м'які)
формат: *.srt

Субтитри # 3: (SDH)
мова: англійська
тип: пререндерні
формат: *.pgs

Збережено оригінальні іменовані розділи, як на Blu-ray.
Info
General
Unique ID : 34425903344894541548787080728375008557 (0x19E63014694930F4D7020A2C20891D2D)
Complete name : F:\+ Open Matte Movie Collection\Inside Man (2006) 1080p [Open Matte] 3xUkrEng Sub UkrEng [Hurtom].
Format :
Format version : Version 4
File size : 10.9 GiB
Duration : 2 h 8 min
Overall bit rate : 12.2 Mb/s
Movie name : Не впіймали - не злодій / Inside Man (2006) 1080p [Open Matte] 3xUkr/Eng | Sub Ukr/Eng [Hurtom]
Encoded date : UTC 2020-06-21 18:44:27
Writing application : v44.0.0 ('Domino') 64-bit
Writing library : libebml v1.3.10 + v1.5.2
Cover : Yes
Attachments : cover.jpg

Video
ID : 1
Format : AVC
Format/Info : Advanced Video Codec
Format profile : [email protected]
Format settings : CABAC / 4 Ref Frames
Format settings, CABAC : Yes
Format settings, Reference fra : 4 frames
Codec ID : V_MPEG4/ISO/AVC
Duration : 2 h 8 min
Bit rate mode : Constant
Bit rate : 9 237 kb/s
Nominal bit rate : 10 000 kb/s
Width : 1 920 pixels
Height : 1 080 pixels
Display aspect ratio : 16:9
Frame rate mode : Constant
Frame rate : 23.976 (24000/1001) FPS
Color space : YUV
Chroma subsampling : 4:2:0
Bit depth : 8 bits
Scan type : Progressive
Bits/(Pixel*Frame) : 0.186
Stream size : 8.31 GiB (76%)
Title : Inside Man (2006) 1080p [Open Matte] 3xUkr/Eng | Sub Ukr/Eng [Hurtom]
Language : Ukrainian
Default : Yes
Forced : Yes
Color range : Limited
Color primaries : BT.709
Transfer characteristics : BT.709
Matrix coefficients : BT.709

Audio #1
ID : 2
Format : AC-3
Format/Info : Audio Coding 3
Commercial name : Dolby Digital
Codec ID : A_AC3
Duration : 2 h 8 min
Bit rate mode : Constant
Bit rate : 192 kb/s
Channel(s) : 2 channels
Channel layout : L R
Sampling rate : 48.0 kHz
Frame rate : 31.250 FPS (1536 SPF)
Compression mode : Lossy
Delay relative to video : 10 s 691 ms
Stream size : 177 MiB (2%)
Title : MVO [1+1] 2.0 [stereo]
Language : Ukrainian
Service kind : Complete Main
Default : Yes
Forced : Yes

Audio #2
ID : 3
Format : AC-3
Format/Info : Audio Coding 3
Commercial name : Dolby Digital
Codec ID : A_AC3
Duration : 2 h 8 min
Bit rate mode : Constant
Bit rate : 192 kb/s
Channel(s) : 2 channels
Channel layout : L R
Sampling rate : 48.0 kHz
Frame rate : 31.250 FPS (1536 SPF)
Compression mode : Lossy
Delay relative to video : 10 s 691 ms
Stream size : 177 MiB (2%)
Title : MVO [NLO.TV] 2.0
Language : Ukrainian
Service kind : Complete Main
Default : No
Forced : No

Audio #3
ID : 4
Format : AC-3
Format/Info : Audio Coding 3
Commercial name : Dolby Digital
Codec ID : A_AC3
Duration : 2 h 8 min
Bit rate mode : Constant
Bit rate : 192 kb/s
Channel(s) : 2 channels
Channel layout : L R
Sampling rate : 48.0 kHz
Frame rate : 31.250 FPS (1536 SPF)
Compression mode : Lossy
Delay relative to video : 10 s 691 ms
Stream size : 177 MiB (2%)
Title : MVO [УКРАЇНА] 2.0 | студія "Так Треба Продакшн"
Language : Ukrainian
Service kind : Complete Main
Default : No
Forced : No

Audio #4
ID : 5
Format :
Format/Info : Digital Theater Systems
Codec ID : A_DTS
Duration : 2 h 8 min
Bit rate mode : Constant
Bit rate : 1 509 kb/s
Channel(s) : 6 channels
Channel layout : C L R Ls Rs LFE
Sampling rate : 48.0 kHz
Frame rate : 93.750 FPS (512 SPF)
Bit depth : 24 bits
Compression mode : Lossy
Delay relative to video : 10 s 500 ms
Stream size : 1.36 GiB (12%)
Title : Original 5.1
Language : English
Default : No
Forced : No

Audio #5
ID : 6
Format : E-AC-3
Format/Info : Enhanced AC-3
Commercial name : Dolby Digital Plus
Codec ID : A_EAC3
Duration : 2 h 8 min
Bit rate mode : Constant
Bit rate : 640 kb/s
Channel(s) : 6 channels
Channel layout : L R C LFE Ls Rs
Sampling rate : 48.0 kHz
Frame rate : 31.250 FPS (1536 SPF)
Compression mode : Lossy
Stream size : 590 MiB (5%)
Title : Original E- 5.1
Language : English
Service kind : Complete Main
Default : No
Forced : No

Audio #6
ID : 7
Format : AC-3
Format/Info : Audio Coding 3
Commercial name : Dolby Digital
Codec ID : A_AC3
Duration : 2 h 8 min
Bit rate mode : Constant
Bit rate : 192 kb/s
Channel(s) : 2 channels
Channel layout : L R
Sampling rate : 48.0 kHz
Frame rate : 31.250 FPS (1536 SPF)
Compression mode : Lossy
Delay relative to video : 10 s 500 ms
Stream size : 177 MiB (2%)
Title : Original 2.0 | Commentary with director Spike Lee
Language : English
Service kind : Complete Main
Default : No
Forced : No

Text #1
ID : 8
Format : UTF-8
Codec ID : S_TEXT/UTF8
Codec ID/Info : UTF-8 Plain Text
Duration : 2 h 7 min
Bit rate : 116 b/s
Count of elements : 1894
Stream size : 110 KiB (0%)
Title : Ukr (Full) | Netflix
Language : Ukrainian
Default : No
Forced : No

Text #2
ID : 9
Format : UTF-8
Codec ID : S_TEXT/UTF8
Codec ID/Info : UTF-8 Plain Text
Duration : 2 h 2 min
Bit rate : 83 b/s
Count of elements : 1901
Stream size : 74.9 KiB (0%)
Title : Eng (Full) SRT
Language : English
Default : No
Forced : No

Text #3
ID : 10
Format : UTF-8
Codec ID : S_TEXT/UTF8
Codec ID/Info : UTF-8 Plain Text
Duration : 2 h 2 min
Bit rate : 94 b/s
Count of elements : 1958
Stream size : 84.7 KiB (0%)
Title : Eng (Full SDH-Colored)
Language : English
Default : No
Forced : No

Menu
00:00:00.000 : en:Who, What, Where, When, Why
00:04:14.963 : en:Hostage Situation
00:13:08.162 : en:Smarter Than You
00:20:40.280 : en:Tactical Situation
00:25:32.572 : en:A Small Problem
00:30:25.698 : en:Satisfaction Guaranteed
00:35:44.392 : en:Asking a Favor
00:40:20.793 : en:List of Demands
00:45:32.729 : en:Negotiating
00:57:18.143 : en:Outside Influence
01:06:51.132 : en:Protecting Interests
01:12:34.767 : en:Cornered
01:17:26.850 : en:Buying Time
01:25:20.073 : en:No Options
01:30:47.859 : en:Bugged
01:36:22.234 : en:Going In
01:42:02.741 : en:Got Nothing
01:47:06.294 : en:Follow the Ring
01:56:05.500 : en:Searching for Truth
02:02:56.035 : en:End Titles
02:08:42.923 : en:02:08:42.923
Скріншоти
Джерело: &
За українські доріжки подяка п.: POMEO та Merdiff - запис з ТБ, DеLight - зведення, українізовані постери - п. thefir та п. Воїн
Подяка за українські субтитри п. Leicheman, за інформацію по озвученню від 1+1 п. 21jumpstreet

Особиста оцінка: 10 - без зайвих вагань рекомендую всім!



 Трекер:    Зареєстрований   

Завантажити / скачати фільм українською



відео для новачків



 Зареєстрований:   2020-07-11 22:27
 Розмір:   10.94 GB 
 Оцінка фільму:   9.8/10 (Голосів: 9)
   
21jumpstreet 
VIP


З нами з: 03.07.12
Востаннє: 01.10.20
Повідомлень: 1250

2020-06-17 13:20  
Є нове озвучення від плюсів.
MakRA 
VIP


З нами з: 11.11.18
Востаннє: 01.10.20
Повідомлень: 1120

2020-07-11 22:21  
Реліз оновлено 11.07.2020
Додано доріжку від 1+1 та повні українські субтитри

Ваш часовий пояс: GMT + 2 Години

Нова тема   Відповісти