Шпигуни під прикриттям / Spies in Disguise (2019) 720p Ukr/Eng | Sub Ukr/Eng

Нові коментарі

Нова тема   Відповісти
Автор Повідомлення
Anonymous 







2020-03-13 03:09  


Шпигуни під прикриттям / Spies in Disguise (2019) 720p Ukr/Eng | Sub Ukr/Eng






Альтернативні постери


Шпигуни під прикриттям / Spies in Disguise (2019) 720p Ukr/Eng | Sub Ukr/Eng



Жанр: анімація, екшн, пригодницький
Країна: США





Кінокомпанія: Blue Sky Studios, Chernin Entertainment, Twentieth Century Fox Animation
Режисер: Трой Квон, Нік Бруно
Ролі озвучують: Вілл Сміт, Том Голланд, Рашіда Джонс, Карен Ґіллан, Рейчел Броснахен, Бен Мендельсон, Масі Ока


Сюжет:
Супершпигуна Ленса Стерлінга всі вважають найкращим у цій професії. Чому? Та просто тому що його всі знають, але ніхто не може зловити. Але такого успіху не було би без суперґаджетів, які для нього створює молодий учений Волтер Беккет. Один із них мало не кожен день рятує світ від усяких небезпек, а інший завжди залишається в тіні, у власному світі винаходів. Його нове відкриття має перевернути світ шпигунства – це спеціальна сироватка, яка перетворює людей у різних істот. Наприклад, у голубів, адже вони такі непримітні. Ленс Стерлінг випадково випив таку сироватку – і став птахом. На кону доля всього світу, а шпигунові потрібно звикнути до нового тіла та до нових здібностей...



Тривалість: 01:41:51
Якість: 720p


Відео:
кодек:
розмір кадру: 1280x536
бітрейт: 6170 кб/с

Аудіо # 1:
мова: українська
переклад: професійний дубльований
кодек: 5.1
бітрейт: 384 кб/с

Аудіо # 2:
мова: англійська
переклад: оригінал
кодек: АС3 5.1
бітрейт: 640 кб/с

Субтитри # 1 - 2: (Forced, Full)
мова: українська
тип: програмні (м'які)
формат: *.srt

Субтитри # 3 - 5: (Forced, Full, SDH)
мова: англійська
тип: програмні (м'які)
формат: *.srt

Info
Код:
General
Complete name                            : Spies in Disguise (2019) 720p [ukr, eng] [Video_Hurtom].
Format                                   :
Format version                           : Version 4
File size                                : 5.12 GiB
Duration                                 : 1 h 41 min
Overall bit rate                         : 7 198 kb/s
Movie name                               : Шпигуни під прикриттям / Spies in Disguise (2019)
Encoded date                             : UTC 2020-05-19 17:46:46
Writing application                      : v30.1.0 ('Forever And More') 64-bit
Writing library                          : libebml v1.3.6 + v1.4.9
Cover                                    : Yes
Attachments                              : cover.jpg

Video
ID                                       : 1
Format                                   : AVC
Format/Info                              : Advanced Video Codec
Format profile                           : [email protected]
Format settings                          : CABAC / 12 Ref Frames
Format settings, CABAC                   : Yes
Format settings, RefFrames               : 12 frames
Codec ID                                 : V_MPEG4/ISO/AVC
Duration                                 : 1 h 41 min
Bit rate                                 : 6 170 kb/s
Width                                    : 1 280 pixels
Height                                   : 536 pixels
Display aspect ratio                     : 2.40:1
Frame rate mode                          : Constant
Frame rate                               : 23.976 (24000/1001) FPS
Color space                              : YUV
Chroma subsampling                       : 4:2:0
Bit depth                                : 8 bits
Scan type                                : Progressive
Bits/(Pixel*Frame)                       : 0.375
Stream size                              : 4.39 GiB (86%)
Writing library                          : core 159 r2991+49 ~ Encoded by Mocunaman in Portugal
Encoding settings                        : cabac=1 / ref=12 / deblock=1:-3:-3 / analyse=0x3:0x113 / me=umh / subme=10 / psy=1 / fade_compensate=0.00 / psy_rd=1.00:0.00 / mixed_ref=1 / me_range=32 / chroma_me=1 / trellis=2 / 8x8dct=1 / cqm=0 / deadzone=21,11 / fast_pskip=0 / chroma_qp_offset=-2 / threads=17 / lookahead_threads=4 / sliced_threads=0 / nr=0 / decimate=0 / interlaced=0 / bluray_compat=0 / constrained_intra=0 / fgo=0 / bframes=10 / b_pyramid=2 / b_adapt=2 / b_bias=0 / direct=3 / weightb=1 / open_gop=0 / weightp=2 / keyint=250 / keyint_min=23 / scenecut=40 / intra_refresh=0 / rc_lookahead=60 / rc=crf / mbtree=0 / crf=16.3000 / qcomp=0.60 / qpmin=0:0:0 / qpmax=69:69:69 / qpstep=4 / vbv_maxrate=30000 / vbv_bufsize=38000 / crf_max=0.0 / nal_hrd=none / filler=0 / ip_ratio=1.30 / pb_ratio=1.20 / aq=3:0.80 / aq-sensitivity=10.00 / aq-factor=1.00:1.00:1.00 / aq2=0 / aq3=0
Language                                 : English
Default                                  : Yes
Forced                                   : No
Color range                              : Limited
Color primaries                          : BT.709
Transfer characteristics                 : BT.709
Matrix coefficients                      : BT.709

Audio #1
ID                                       : 2
Format                                   : AC-3
Format/Info                              : Audio Coding 3
Commercial name                          : Dolby Digital
Codec ID                                 : A_AC3
Duration                                 : 1 h 41 min
Bit rate mode                            : Constant
Bit rate                                 : 384 kb/s
Channel(s)                               : 6 channels
Channel layout                           : L R C LFE Ls Rs
Sampling rate                            : 48.0 kHz
Frame rate                               : 31.250 FPS (1536 SPF)
Bit depth                                : 16 bits
Compression mode                         : Lossy
Stream size                              : 280 MiB (5%)
Title                                    : 5.1 | 384
Language                                 : Ukrainian
Service kind                             : Complete Main
Default                                  : Yes
Forced                                   : No

Audio #2
ID                                       : 3
Format                                   : AC-3
Format/Info                              : Audio Coding 3
Commercial name                          : Dolby Digital
Codec ID                                 : A_AC3
Duration                                 : 1 h 41 min
Bit rate mode                            : Constant
Bit rate                                 : 640 kb/s
Channel(s)                               : 6 channels
Channel layout                           : L R C LFE Ls Rs
Sampling rate                            : 48.0 kHz
Frame rate                               : 31.250 FPS (1536 SPF)
Bit depth                                : 16 bits
Compression mode                         : Lossy
Stream size                              : 466 MiB (9%)
Title                                    : 5.1 | 640
Language                                 : English
Service kind                             : Complete Main
Default                                  : No
Forced                                   : No

Text #1
ID                                       : 4
Format                                   : UTF-8
Codec ID                                 : S_TEXT/UTF8
Codec ID/Info                            : UTF-8 Plain Text
Duration                                 : 1 h 40 min
Bit rate                                 : 3 b/s
Count of elements                        : 51
Stream size                              : 2.31 KiB (0%)
Title                                    : Forced
Language                                 : Ukrainian
Default                                  : Yes
Forced                                   : No

Text #2
ID                                       : 5
Format                                   : UTF-8
Codec ID                                 : S_TEXT/UTF8
Codec ID/Info                            : UTF-8 Plain Text
Duration                                 : 1 h 40 min
Bit rate                                 : 98 b/s
Count of elements                        : 1456
Stream size                              : 72.2 KiB (0%)
Title                                    : Full
Language                                 : Ukrainian
Default                                  : No
Forced                                   : No

Text #3
ID                                       : 6
Format                                   : UTF-8
Codec ID                                 : S_TEXT/UTF8
Codec ID/Info                            : UTF-8 Plain Text
Duration                                 : 1 h 18 min
Bit rate                                 : 0 b/s
Count of elements                        : 6
Stream size                              : 142 Bytes (0%)
Title                                    : Forced
Language                                 : English
Default                                  : No
Forced                                   : Yes

Text #4
ID                                       : 7
Format                                   : UTF-8
Codec ID                                 : S_TEXT/UTF8
Codec ID/Info                            : UTF-8 Plain Text
Duration                                 : 1 h 31 min
Bit rate                                 : 59 b/s
Count of elements                        : 1549
Stream size                              : 40.0 KiB (0%)
Title                                    : Full
Language                                 : English
Default                                  : No
Forced                                   : No

Text #5
ID                                       : 8
Format                                   : UTF-8
Codec ID                                 : S_TEXT/UTF8
Codec ID/Info                            : UTF-8 Plain Text
Duration                                 : 1 h 41 min
Bit rate                                 : 66 b/s
Count of elements                        : 1911
Stream size                              : 49.3 KiB (0%)
Title                                    : SDH
Language                                 : English
Default                                  : No
Forced                                   : No

Menu
00:00:00.000                             : en:Chapter 01
00:04:09.499                             : en:Chapter 02
00:06:54.497                             : en:Chapter 03
00:11:53.838                             : en:Chapter 04
00:15:31.013                             : en:Chapter 05
00:20:35.484                             : en:Chapter 06
00:23:20.858                             : en:Chapter 07
00:26:42.434                             : en:Chapter 08
00:30:59.524                             : en:Chapter 09
00:36:06.581                             : en:Chapter 10
00:41:34.951                             : en:Chapter 11
00:45:41.947                             : en:Chapter 12
00:49:57.786                             : en:Chapter 13
00:53:58.902                             : en:Chapter 14
00:56:34.308                             : en:Chapter 15
01:00:06.770                             : en:Chapter 16
01:08:46.914                             : en:Chapter 17
01:12:51.784                             : en:Chapter 18
01:17:34.275                             : en:Chapter 19
01:20:18.939                             : en:Chapter 20
01:23:19.077                             : en:Chapter 21
01:26:05.243                             : en:Chapter 22
01:29:47.173                             : en:Chapter 23
01:33:08.875                             : en:Chapter 24

Скріншоти




Джерело: &
Особиста оцінка: 9 - давно не бачив настільки якісне кіно






 Трекер:    Зареєстрований   

Завантажити / скачати мультфільм українською



відео для новачків



 Зареєстрований:   2020-05-19 20:46
 Розмір:   5.12 GB 
 Оцінка мультфільму:   9.7/10 (Голосів: 47)
   
Слідопит_8900 
Новенький


З нами з: 03.11.14
Востаннє: 29.11.20
Повідомлень: 9

2020-04-01 23:30  
Дуже класний мультфільм. Я реально кайфонув від тих, хто дублював його.
Anonymous 







2020-05-19 20:47  
Торент файл оновлено. Заміна аудіо на якісніше.
vovarodis 
Свій


З нами з: 12.09.14
Востаннє: 30.11.20
Повідомлень: 79

2020-07-16 23:05  
Агонь 10/10
Ваш часовий пояс: GMT + 2 Години

Нова тема   Відповісти