Аквамарин / Aquamarine (2006) AVC Ukr/Eng | sub Eng

Нові коментарі

Нова тема   Відповісти
Автор Повідомлення
Arsenfpu 
Відео Гуртом - фільмокрай
Відео Гуртом - фільмокрай


З нами з: 30.04.09
Востаннє: 10.07.20
Повідомлень: 7049

2020-03-13 01:02  
Аквамарин / Aquamarine (2006) AVC Ukr/Eng | sub Eng

Аквамарин / Aquamarine (2006) AVC Ukr/Eng | sub Eng


Жанр: комедія, сімейний, фентезі
Країна: США, Австралія



Кінокомпанія: Twentieth Century Fox, Fox 2000 Pictures, Storefront Pictures
Режисер: Елізабет Аллен
Актори: Емма Робертс, Джоана 'JoJo' Левескі, Сара Пекстон, Джейк Макдорман

Сюжет:
Літо закінчується, і перед нерозлучними подругами Клер і Хейлі постає серйозна проблема: рівно через п'ять днів сім'я Хейлі перебирається на інший кінець світу! Допомогти дівчатам може тільки диво, і воно з'являється у вигляді прекрасної русалки Аквамарин, яку виносить на берег штормом. Мила, але зовсім недосвідчена в романтичних справах, вона пропонує дівчатам виконати одне їх бажання, якщо ті допоможуть їй знайти хлопця її мрії. Подруги намагаються заманити місцевого рятувальника, але результат виявляється досить далеким від очікуваного ... і стає ясно, що іноді твої бажання - це зовсім не те, чого ти в дійсності хочеш.


Тривалість: 01:43:32
Якість:
Відео:
кодек:
розмір кадру: 1 024 х 560
бітрейт: 2 399 кб/с

Аудіо # 1:
мова: українська
переклад: багатоголосий закадровий , ,
кодек: 2.0
бітрейт: 192 кб/с

Аудіо # 2:
мова: англійська
переклад: оригінал
кодек: 2.0
бітрейт: 192 кб/с

Субтитри:
мова: англійська
тип: програмні (м'які)
формат: *.srt
Скріншоти














Про файл
General
Unique ID : 12338079732889858674942611140289724946 (0x9483A4BF2CBEDEB7AE5A89A94D38212)
Complete name : C:\Aquamarine (2006) [Ukr,Eng] AVC [Hurtom].
Format :
Format version : Version 4 / Version 2
File size : 2.01 GiB
Duration : 1 h 43 min
Overall bit rate : 2 784 kb/s
Movie name : Аквамарин / Aquamarine (2006)
Encoded date : UTC 2020-03-12 20:52:39
Writing application : v21.0.0 ('Tardigrades Will Inherit The Earth') 32-bit
Writing library : libebml v1.3.5 + v1.4.8
Cover : Yes
Attachments : cover.jpg

Video
ID : 1
Format : AVC
Format/Info : Advanced Video Codec
Format profile : [email protected]
Format settings, CABAC : Yes
Format settings, ReFrames : 4 frames
Codec ID : V_MPEG4/ISO/AVC
Duration : 1 h 43 min
Bit rate : 2 399 kb/s
Width : 1 024 pixels
Height : 560 pixels
Display aspect ratio : 1.85:1
Frame rate mode : Constant
Frame rate : 23.976 (24000/1001) FPS
Color space : YUV
Chroma subsampling : 4:2:0
Bit depth : 8 bits
Scan type : Progressive
Bits/(Pixel*Frame) : 0.174
Stream size : 1.73 GiB (86%)
Writing library : core 157 r2935 545de2f
Encoding settings : cabac=1 / ref=3 / deblock=1:-1:-1 / analyse=0x3:0x113 / me=hex / subme=7 / psy=1 / psy_rd=1.00:0.15 / mixed_ref=1 / me_range=16 / chroma_me=1 / trellis=1 / 8x8dct=1 / cqm=0 / deadzone=21,11 / fast_pskip=1 / chroma_qp_offset=-3 / threads=12 / lookahead_threads=2 / sliced_threads=0 / nr=0 / decimate=1 / interlaced=0 / bluray_compat=0 / constrained_intra=0 / bframes=3 / b_pyramid=2 / b_adapt=1 / b_bias=0 / direct=1 / weightb=1 / open_gop=0 / weightp=2 / keyint=240 / keyint_min=23 / scenecut=40 / intra_refresh=0 / rc_lookahead=40 / rc=2pass / mbtree=1 / bitrate=2399 / ratetol=1.0 / qcomp=0.60 / qpmin=0 / qpmax=69 / qpstep=4 / cplxblur=20.0 / qblur=0.5 / ip_ratio=1.40 / aq=1:1.00
Default : Yes
Forced : No

Audio #1
ID : 2
Format : AC-3
Format/Info : Audio Coding 3
Mode extension : CM (complete main)
Format settings, Endianness : Big
Codec ID : A_AC3
Duration : 1 h 43 min
Bit rate mode : Constant
Bit rate : 192 kb/s
Channel(s) : 2 channels
Channel positions : Front: L R
Sampling rate : 48.0 kHz
Frame rate : 31.250 FPS (1536 spf)
Compression mode : Lossy
Stream size : 142 MiB (7%)
Title : Новий
Language : Ukrainian
Default : Yes
Forced : Yes

Audio #2
ID : 3
Format : AC-3
Format/Info : Audio Coding 3
Mode extension : CM (complete main)
Format settings, Endianness : Big
Codec ID : A_AC3
Duration : 1 h 43 min
Bit rate mode : Constant
Bit rate : 192 kb/s
Channel(s) : 2 channels
Channel positions : Front: L R
Sampling rate : 48.0 kHz
Frame rate : 31.250 FPS (1536 spf)
Compression mode : Lossy
Stream size : 142 MiB (7%)
Language : English
Default : No
Forced : No

Text
ID : 4
Format : UTF-8
Codec ID : S_TEXT/UTF8
Codec ID/Info : UTF-8 Plain Text
Duration : 1 h 42 min
Bit rate : 58 b/s
Count of elements : 1295
Stream size : 44.0 KiB (0%)
Language : English
Default : Yes
Forced : No
Джерело:
За запис з ТБ дякую пану Bohdan237
За постер дякую пану Gelios
Особиста оцінка: не дивився


 Трекер:    Зареєстрований   

Завантажити / скачати фільм українською



відео для новачків



 Зареєстрований:   2020-03-13 01:02
 Розмір:   2.01 GB 
 Оцінка фільму:   10/10 (Голосів: 4)
   
Інші релізи
   Аквамарин / Aquamarine (2006) NemoInFire  2 / 0   1.86 GB   2012-03-08 01:04 
Ваш часовий пояс: GMT + 2 Години

Нова тема   Відповісти