Титанік / Titanic (1997) [Open Matte] 1080p H.265 3xUkr/Eng | Sub Ukr/Eng

Нові коментарі

Нова тема   Відповісти
Автор Повідомлення
Anonymous 







2020-03-12 02:49  
Титанік / Titanic (1997) [Open Matte] 1080p H.265 3xUkr/Eng | Sub Ukr/Eng

Титанік / Titanic (1997) [Open Matte] 1080p H.265 3xUkr/Eng | Sub Ukr/Eng


Жанр: драма, мелодрама
Країна: США
Кінокомпанія: Twentieth Century Fox Film Corporation, Paramount Pictures, Lightstorm Entertainment
Режисер: Джеймс Камерон / James Cameron
Актори: Леонардо ДіКапріо / Leonardo DiCaprio, Кейт Уінслет / Kate Winslet, Біллі Зейн / Billy Zane, Кеті Бейтс / Kathy Bates, Френсіс Фішер / Frances Fisher, Глорія Стюарт / Gloria Stuart, Білл Пекстон / Bill Paxton, Бернард Хілл / Bernard Hill, Девід Ворнер / David Warner, Віктор Ґарбер / Victor Garber, Джонатан Гайд / Jonathan Hyde, Сюзі Аміс / Suzy Amis, Луіс Абернаті / Lewis Abernathy, Ніколас Касконе / Nicholas Cascone, Анатолій М. Сагалевіч / Anatoly M. Sagalevitch

Сюжет:
Джек і Роуз, юні коханці розділені класовими забобонами, по велінню долі що знайшли один одного в першій подорожі «непотоплюваного» Титаніка. Але коли приречений, розкішний лайнер стикається з айсбергом в крижаній Північній Антлантиці, їх пристрасний роман перетворюється на захоплюючу гонку на виживання. На що здатне кохання? Чи врятуються вони...

Тривалість: 03:14:54
Якість:

Відео:
кодек: H.265 (HEVC)
розмір кадру: 1920 x 1080
бітрейт: 9 566 кб/с
бітова глибина: 10 біт

Увага! Перед завантаженням переконайтесь, що ваш пристрій відтворення (та/або ПЗ) підтримує H.265 (HEVC)

Аудіо # 1:
мова: українська
переклад: професійний дубльований
кодек: AC-3 5.1
бітрейт: 448 кб/с
Інформація про дубляж
Переклад: Надії Бойван
Режисер дубляжу: Костянтин Лінартович
Звукорежисер: Максим Пономарчук
Менеджер проекту: Ірина Туловська
Ролі дублювали: Леонардо ДіКапріо/Джек - Андрій Федінчик, Кейт Вінслет/Роуз - Юлія Перенчук, Дмитро Лінартович, Валентина Гришокіна, Михайло Кришталь, Василь Мазур, Людмила Суслова, Михайло Жонін, Анатолій Барчук, Ірина Яценко, Михайло Тишин, Сергій Солопай, Микола Боклан та інші.

Фільм перекладено і дубльовано на студії Postmodern на замовлення Ukrainian Film Distribution
Аудіо # 2:
мова: українська
переклад: багатоголосий закадровий
кодек: AC-3 2.0
бітрейт: 192 кб/с
Інформація про озвучення
Ролі озвучували: Олена Узлюк, Валентина Гришокіна, Олесь Гімбаржевський та Микола Козій

Фільм перекладено і озвучено на студії 1+1
Аудіо # 3:
мова: українська
переклад: багатоголосий закадровий
кодек: AC-3 2.0
бітрейт: 192 кб/с
Інформація про озвучення
Переклад: Сергія Ковальчука
Ролі озвучували: Павло Скороходько, Михайло Жонін, Лідія Муращенко та ще один жіночий
Аудіо # 4:
мова: англійська
переклад: оригінал
кодек: 5.1
бітрейт: 1510 кб/с

Субтитри # 1-2: (Forced, Full)
мова: українська
тип: програмні (м'які)
формат: *.srt

Субтитри # 3: (Full)
мова: англійська
тип: програмні (м'які)
формат: *.srt


Info
Код:
General
Unique ID                                : 166715569408475751475907231911653666130 (0x7D6C402FF7D5C6184528BE5F57EFED52)
Complete name                            : Titanic (1997) [Open Matte] 1080p H.265 [3xUKR_ENG] [Hurtom].
Format                                   :
Format version                           : Version 4
File size                                : 16.2 GiB
Duration                                 : 3 h 14 min
Overall bit rate                         : 11.9 Mb/s
Movie name                               : Титанік / Titanic (1997)
Encoded date                             : UTC 2020-03-11 23:39:23
Writing application                      : v20.0.0 ('I Am The Sun') 64-bit
Writing library                          : libebml v1.3.5 + v1.4.8
Cover                                    : Yes
Attachments                              : Cover.jpg

Video
ID                                       : 1
Format                                   : HEVC
Format/Info                              : High Efficiency Video Coding
Format profile                           : Main [email protected]@High
Codec ID                                 : V_MPEGH/ISO/HEVC
Duration                                 : 3 h 14 min
Bit rate                                 : 9 566 kb/s
Width                                    : 1 920 pixels
Height                                   : 1 080 pixels
Display aspect ratio                     : 16:9
Frame rate mode                          : Constant
Frame rate                               : 23.976 (24000/1001) FPS
Color space                              : YUV
Chroma subsampling                       : 4:2:0
Bit depth                                : 10 bits
Bits/(Pixel*Frame)                       : 0.192
Stream size                              : 13.0 GiB (80%)
Title                                    : Титанік / Titanic (1997)
Writing library                          : x265 3.3+1-g554c887ac:[Windows][MSVC 1900][64 bit] 10bit
Encoding settings                        : cpuid=1111039 / frame-threads=4 / numa-pools=16 / wpp / no-pmode / no-pme / no-psnr / no-ssim / log-level=2 / input-csp=1 / input-res=1920x1080 / interlace=0 / total-frames=280389 / level-idc=41 / high-tier=1 / uhd-bd=0 / ref=5 / no-allow-non-conformance / no-repeat-headers / annexb / no-aud / no-hrd / info / hash=0 / no-temporal-layers / open-gop / min-keyint=23 / keyint=240 / gop-lookahead=0 / bframes=12 / b-adapt=2 / b-pyramid / bframe-bias=0 / rc-lookahead=60 / lookahead-slices=1 / scenecut=40 / hist-scenecut=0 / radl=0 / no-splice / no-intra-refresh / ctu=32 / min-cu-size=8 / rect / amp / max-tu-size=32 / tu-inter-depth=4 / tu-intra-depth=4 / limit-tu=1 / rdoq-level=2 / dynamic-rd=0.00 / no-ssim-rd / signhide / no-tskip / nr-intra=0 / nr-inter=0 / no-constrained-intra / no-strong-intra-smoothing / max-merge=5 / limit-refs=3 / limit-modes / me=3 / subme=7 / merange=57 / temporal-mvp / no-frame-dup / hme / Level / merange / L0,L1,L2=16,32,57 / weightp / weightb / no-analyze-src-pics / deblock=-3:-3 / no-sao / no-sao-non-deblock / rd=6 / selective-sao=0 / no-early-skip / no-rskip / no-fast-intra / no-tskip-fast / no-cu-lossless / no-b-intra / no-splitrd-skip / rdpenalty=0 / psy-rd=2.20 / psy-rdoq=1.10 / no-rd-refine / no-lossless / cbqpoffs=0 / crqpoffs=0 / rc=crf / crf=19.5 / qcomp=0.70 / qpstep=4 / stats-write=0 / stats-read=0 / vbv-maxrate=50000 / vbv-bufsize=50000 / vbv-init=0.9 / crf-max=0.0 / crf-min=0.0 / ipratio=1.40 / pbratio=1.30 / aq-mode=4 / aq-strength=0.80 / no-cutree / zone-count=0 / no-strict-cbr / qg-size=32 / no-rc-grain / qpmax=69 / qpmin=0 / no-const-vbv / sar=1 / overscan=0 / videoformat=5 / range=0 / colorprim=1 / transfer=1 / colormatrix=1 / chromaloc=0 / display-window=0 / cll=0,0 / min-luma=0 / max-luma=1023 / log2-max-poc-lsb=8 / vui-timing-info / vui-hrd-info / slices=1 / no-opt-qp-pps / no-opt-ref-list-length-pps / no-multi-pass-opt-rps / scenecut-bias=0.05 / hist-threshold=0.01 / no-opt-cu-delta-qp / no-aq-motion / no-hdr10 / no-hdr10-opt / no-dhdr10-opt / no-idr-recovery-sei / analysis-reuse-level=0 / analysis-save-reuse-level=0 / analysis-load-reuse-level=0 / scale-factor=0 / refine-intra=0 / refine-inter=0 / refine-mv=1 / refine-ctu-distortion=0 / no-limit-sao / ctu-info=0 / no-lowpass-dct / refine-analysis-type=0 / copy-pic=1 / max-ausize-factor=1.0 / no-dynamic-refine / no-single-sei / no-hevc-aq / no-svt / no-field / qp-adaptation-range=1.00 / no-scenecut-aware-qpconformance-window-offsets / right=0 / bottom=0
Language                                 : English
Default                                  : Yes
Forced                                   : No
Color range                              : Limited
Color primaries                          : BT.709
Transfer characteristics                 : BT.709
Matrix coefficients                      : BT.709

Audio #1
ID                                       : 2
Format                                   : AC-3
Format/Info                              : Audio Coding 3
Commercial name                          : Dolby Digital
Codec ID                                 : A_AC3
Duration                                 : 3 h 14 min
Bit rate mode                            : Constant
Bit rate                                 : 448 kb/s
Channel(s)                               : 6 channels
Channel layout                           : L R C LFE Ls Rs
Sampling rate                            : 48.0 kHz
Frame rate                               : 31.250 FPS (1536 SPF)
Compression mode                         : Lossy
Stream size                              : 624 MiB (4%)
Title                                    : / 5.1 Ch / 448 kbps / ПД / Blu-Ray
Language                                 : Ukrainian
Service kind                             : Complete Main
Default                                  : Yes
Forced                                   : Yes

Audio #2
ID                                       : 3
Format                                   : AC-3
Format/Info                              : Audio Coding 3
Commercial name                          : Dolby Digital
Codec ID                                 : A_AC3
Duration                                 : 3 h 14 min
Bit rate mode                            : Constant
Bit rate                                 : 192 kb/s
Channel(s)                               : 2 channels
Channel layout                           : L R
Sampling rate                            : 48.0 kHz
Frame rate                               : 31.250 FPS (1536 SPF)
Compression mode                         : Lossy
Stream size                              : 268 MiB (2%)
Title                                    : / 2.0 Ch / 192 kbps / БЗ / 1+1
Language                                 : Ukrainian
Service kind                             : Complete Main
Default                                  : No
Forced                                   : No

Audio #3
ID                                       : 4
Format                                   : AC-3
Format/Info                              : Audio Coding 3
Commercial name                          : Dolby Digital
Codec ID                                 : A_AC3
Duration                                 : 3 h 14 min
Bit rate mode                            : Constant
Bit rate                                 : 192 kb/s
Channel(s)                               : 2 channels
Channel layout                           : L R
Sampling rate                            : 48.0 kHz
Frame rate                               : 31.250 FPS (1536 SPF)
Compression mode                         : Lossy
Stream size                              : 268 MiB (2%)
Title                                    : / 2.0 Ch / 192 kbps / БЗ / Novy Kanal
Language                                 : Ukrainian
Service kind                             : Complete Main
Default                                  : No
Forced                                   : No

Audio #4
ID                                       : 5
Format                                   :
Format/Info                              : Digital Theater Systems
Codec ID                                 : A_DTS
Duration                                 : 3 h 14 min
Bit rate mode                            : Constant
Bit rate                                 : 1 509 kb/s
Channel(s)                               : 6 channels
Channel layout                           : C L R Ls Rs LFE
Sampling rate                            : 48.0 kHz
Frame rate                               : 93.750 FPS (512 SPF)
Bit depth                                : 24 bits
Compression mode                         : Lossy
Stream size                              : 2.05 GiB (13%)
Title                                    : / 5.1 Ch / 1509 kbps / Original
Language                                 : English
Default                                  : No
Forced                                   : No

Text #1
ID                                       : 6
Format                                   : UTF-8
Codec ID                                 : S_TEXT/UTF8
Codec ID/Info                            : UTF-8 Plain Text
Duration                                 : 3 h 4 min
Bit rate                                 : 0 b/s
Count of elements                        : 7
Stream size                              : 256 Bytes (0%)
Title                                    : Forced
Language                                 : Ukrainian
Default                                  : Yes
Forced                                   : Yes

Text #2
ID                                       : 7
Format                                   : UTF-8
Codec ID                                 : S_TEXT/UTF8
Codec ID/Info                            : UTF-8 Plain Text
Duration                                 : 3 h 12 min
Bit rate                                 : 67 b/s
Count of elements                        : 1856
Stream size                              : 95.1 KiB (0%)
Title                                    : Full
Language                                 : Ukrainian
Default                                  : No
Forced                                   : No

Text #3
ID                                       : 8
Format                                   : UTF-8
Codec ID                                 : S_TEXT/UTF8
Codec ID/Info                            : UTF-8 Plain Text
Duration                                 : 3 h 1 min
Bit rate                                 : 46 b/s
Count of elements                        : 2103
Stream size                              : 61.4 KiB (0%)
Title                                    : Full
Language                                 : English
Default                                  : No
Forced                                   : No

Menu
00:00:00.000                             : en:Opening Credits
00:01:24.375                             : en:Ghost Ship
00:04:39.988                             : en:Into the Wreck
00:08:26.130                             : en:The Keldysh
00:10:46.771                             : en:The Woman in the Picture
00:12:52.646                             : en:Old Rose Arrives
00:16:52.427                             : en:Reflections of the Past
00:20:07.748                             : en:Back to Titanic
00:23:38.875                             : en:A Lucky Hand
00:26:26.543                             : en:Leaving Port
00:29:03.366                             : en:Cherbourg
00:29:37.525                             : en:Ode to Titanic
00:34:59.930                             : en:First Glance
00:36:48.622                             : en:"You Jump, I Jump"
00:42:59.159                             : en:An Invitation to Dinner
00:45:26.098                             : en:The Heart of the Ocean
00:47:11.620                             : en:Sketches and Stories
00:53:33.042                             : en:Learning New Things
00:56:47.987                             : en:Dinner with Jack
01:05:32.052                             : en:A Real Party
01:10:19.965                             : en:A Cold Breakfast
01:14:06.358                             : en:Sunday Prayer
01:16:10.690                             : en:"They've Got You Trapped"
01:19:59.043                             : en:Flying
01:22:50.506                             : en:"That Was the Last Time..."
01:23:40.056                             : en:The Drawing
01:28:21.629                             : en:"My Heart Was Pounding"
01:29:19.854                             : en:"Find Her"
01:32:52.274                             : en:Two Souls United
01:36:59.104                             : en:"Iceberg Right Ahead!"
01:44:41.149                             : en:An Honest Thief
01:46:21.040                             : en:A Mathematical Certainty
01:47:58.846                             : en:A Stricken Relationship
01:50:11.103                             : en:Andrews Tells Rose
01:52:21.400                             : en:Women and Children First
01:53:54.326                             : en:Third Class Patience
01:55:21.830                             : en:A Small Token of Appreciation
01:56:10.879                             : en:"Goodbye, Mother"
01:57:53.232                             : en:"Can Anybody Hear Me?"
02:06:38.340                             : en:A View From the Lifeboats
02:08:49.971                             : en:Third Class Panic
02:11:22.081                             : en:Starting to Fall Apart
02:15:42.550                             : en:"Get on the Boat, Rose"
02:19:43.457                             : en:Cal Spurned
02:21:24.558                             : en:Flooding Below Decks
02:25:28.760                             : en:Two Tragic Bullets
02:27:28.422                             : en:Questions of Character
02:29:07.270                             : en:Captain Smith
02:29:56.695                             : en:Nearer My God to Thee
02:33:31.534                             : en:Shattered Dreams
02:36:52.360                             : en:At the Siren
02:38:33.878                             : en:Prayer for the Dying
02:40:34.665                             : en:Death of Titanic
02:45:00.639                             : en:Sea of Humanity
02:47:48.807                             : en:In the Lifeboats
02:49:22.526                             : en:The Promise
02:52:09.609                             : en:"We Waited Too Long"
02:53:41.326                             : en:"I'll Never Let Go"
02:57:53.495                             : en:Never an Absolution
02:59:35.305                             : en:The Carpathia
03:01:29.252                             : en:Expedition's End
03:03:13.648                             : en:Rose's Secret
03:04:57.877                             : en:A Promise Dept
03:07:19.643                             : en:End Credits
Світлини




Джерело: &
Особиста оцінка: 10 - без зайвих вагань рекомендую всім!


Срібний реліз (на рейтинг впливає 50% завантаженого)
 Трекер:    Зареєстрований   

Завантажити / скачати фільм українською



відео для новачків



 Зареєстрований:   2020-03-12 02:49
 Розмір:   16.21 GB 
 Оцінка фільму:   9.9/10 (Голосів: 9)
   
Інші релізи
   Титанік / Titanic (1997) AVC 3xUkr | Sub Ukr/Eng Maters  11 / 0   3.72 GB   2019-11-23 01:47 
   Титанік / Titanic (1997) UHD Remux 4K 2160p HDR H.265 3хUkr/Eng | Sub Ukr/Eng seasky  3 / 0   96.88 GB   2019-08-30 01:57 
   Титанік / Titanic (1997) AVC 3xUkr/Eng | Sub Ukr/Eng Sando7  2 / 0   6.51 GB   2019-02-13 12:41 
   Титанік / Titanic (1997) Remux 1080p 3xUkr/Eng | Sub Ukr/Eng | Open Matte BABELAN  1 / 0   49.12 GB   2019-01-26 12:07 
   Титанік / Titanic (1997) Blu-ray CEE 1080p Eng/Rus/Pol/Ukr | Sub Ukr/Multi (+Bonus Disc) Jatx  3 / 0   92.17 GB   2019-01-04 19:32 
   Титанік / Titanic (1997) mini 1080p H.265 3xUkr/Eng | Sub Ukr/Eng -Star-Lord-  2 / 0   7.87 GB   2018-11-06 12:46 
   Титанік / Titanic (1997) 1080p 3xUkr/Eng | Sub Ukr/Eng ratbol  4 / 0   22.67 GB   2013-04-20 16:03 
   Титанік / Titanic (1997) 720p 3xUkr/Eng | Sub Ukr/Eng ratbol  3 / 0   11.03 GB   2013-04-20 16:00 
   Титанік / Titanic (1997) 3xUkr/Eng | Sub Ukr/Eng karvai0  7 / 0   4.36 GB   2013-04-02 22:01 
Ваш часовий пояс: GMT + 2 Години

Нова тема   Відповісти