Кубок України 2019/2020 / 1/4 фіналу / Динамо (Київ) - ФК Олександрія / 2 + 2 (11.03.2020) 720p

Нові коментарі

Нова тема   Відповісти
Автор Повідомлення
Anonymous 







2020-03-12 01:27  
Кубок України 2019/2020 / 1/4 фіналу / Динамо (Київ) - ФК Олександрія / 2 + 2 (11.03.2020) 720p



Телеканал: 2+2
Опис:
11 березня 2020 , 19:30 НСК Олімпійський 1/4 фіналу / Динамо (Київ) - ФК Олександрія
Тривалість:
02:24:18
Якість: 720p
Відео:
кодек:
розмір кадру: 1280x720
бітрейт: ~3700 кб/с

Аудіо:
мова: українська
переклад: одноголосий закадровий | Сергей Пейчев
кодек: 2.0
бітрейт: 128 кб/с
Склади:




Скріншоти






Info
Код:
General
Complete name                            : Dynamo_Kyiv_vs_FC_Olexandriya (2020) [ukr].
Format                                   :
Format version                           : Version 4
File size                                : 3.93 GiB
Duration                                 : 2 h 24 min
Overall bit rate                         : 3 889 kb/s
Writing application                      : Lavf58.32.104
Writing library                          : Lavf58.32.104
ErrorDetectionType                       : Per level 1

Video
ID                                       : 1
Format                                   : AVC
Format/Info                              : Advanced Video Codec
Format profile                           : [email protected]
Format settings                          : CABAC / 5 Ref Frames
Format settings, CABAC                   : Yes
Format settings, RefFrames               : 5 frames
Codec ID                                 : V_MPEG4/ISO/AVC
Duration                                 : 2 h 24 min
Bit rate                                 : 3 684 kb/s
Width                                    : 1 280 pixels
Height                                   : 720 pixels
Display aspect ratio                     : 16:9
Frame rate mode                          : Variable
Color space                              : YUV
Chroma subsampling                       : 4:2:0
Bit depth                                : 8 bits
Scan type                                : Progressive
Stream size                              : 3.73 GiB (95%)
Writing library                          : core 158 r2984 3759fcb
Encoding settings                        : cabac=1 / ref=5 / deblock=1:0:0 / analyse=0x3:0x113 / me=hex / subme=8 / psy=1 / psy_rd=1.00:0.00 / mixed_ref=1 / me_range=16 / chroma_me=1 / trellis=2 / 8x8dct=1 / cqm=0 / deadzone=21,11 / fast_pskip=1 / chroma_qp_offset=-2 / threads=22 / lookahead_threads=3 / sliced_threads=0 / nr=0 / decimate=1 / interlaced=0 / bluray_compat=0 / constrained_intra=0 / bframes=3 / b_pyramid=2 / b_adapt=1 / b_bias=0 / direct=3 / weightb=1 / open_gop=0 / weightp=2 / keyint=250 / keyint_min=25 / scenecut=40 / intra_refresh=0 / rc_lookahead=50 / rc=crf / mbtree=1 / crf=21.0 / qcomp=0.60 / qpmin=0 / qpmax=69 / qpstep=4 / ip_ratio=1.40 / aq=1:1.00
Default                                  : Yes
Forced                                   : No

Audio
ID                                       : 2
Format                                   : AC-3
Format/Info                              : Audio Coding 3
Commercial name                          : Dolby Digital
Codec ID                                 : A_AC3
Duration                                 : 2 h 24 min
Bit rate mode                            : Constant
Bit rate                                 : 128 kb/s
Channel(s)                               : 2 channels
Channel layout                           : L R
Sampling rate                            : 44.1 kHz
Frame rate                               : 28.711 FPS (1536 SPF)
Bit depth                                : 16 bits
Compression mode                         : Lossy
Stream size                              : 133 MiB (3%)
Writing library                          : Lavc58.58.101
Language                                 : English
Service kind                             : Complete Main
Default                                  : Yes
Forced                                   : No
Подяка за допомогу у створенні релізу : rgfootball
Особиста оцінка: 9 - давно не бачив настільки якісне кіно


Золотий реліз (завантажене не впливає на рейтинг)
 Трекер:    Зареєстрований   

Завантажити / скачати торрент



відео для новачків



 Зареєстрований:   2020-03-12 01:27
 Розмір:   3.93 GB 
 Оцінка:   9.8/10 (Голосів: 4)
 ЗАЛИШАЙТЕСЬ ЯКОМОГА ДОВШЕ НА РОЗДАЧІ! ЗАВАНТАЖИВ САМ - ДАЙ ЗАВАНТАЖИТИ ІНШИМ!
   
Ваш часовий пояс: GMT + 2 Години

Нова тема   Відповісти