Кафе бажань / La Belle Époque (2019) 1080p Ukr/Fre | Sub Fre

Нові коментарі

Нова тема   Відповісти
Автор Повідомлення
Anonymous 







2020-03-11 01:40  
Кафе бажань / La Belle Époque (2019) 1080p Ukr/Fre | Sub Fre


Кафе бажань / La Belle Époque (2019) 1080p Ukr/Fre | Sub Fre


Жанр: драма, комедія
Країна: Франція



Кінокомпанія: Les Films du Kiosque, Pathé, Orange Studio
Режисер: Ніколя Бедос
Актори: Даніель Отой, Гійом Кане, Дорія Тільє, Фанні Ардан, П'єр Ардіті, Дені Подалідес, Майкл Коен

Сюжет:
Життя Віктора, головного героя, перевертається з ніг на голову, коли жінка зраджує йому з другом сім’ї. Одночасно з цим Віктор дізнається про новітню розвагу: за допомогою історичної реконструкції компанія надає клієнтам можливість поринути у минуле. Чоловік вирішує оживити найбільш пам’ятний тиждень життя – коли 40 років тому зустрів велике кохання…


Тривалість: 01:55:00
Якість: 1080p

Відео:
кодек:
розмір кадру: 1920 x 800
бітрейт: 16.6 мб/с

Аудіо # 1:
мова:українська
переклад: професійний дубльований
кодек: 5.1
бітрейт: 384 кб/с

Аудіо # 2:
мова: французька
переклад: оригінал
кодек: 5.1
бітрейт: 640 кб/с

Субтитри:
мова: французька
тип: програмні (м'які)
формат: *.srt
Info
Код:
General
Complete name                            : La Belle Epoque (2019) 1080p [Ukr, Fre].
Format                                   :
Format version                           : Version 4
File size                                : 14.2 GiB
Duration                                 : 1 h 55 min
Overall bit rate                         : 17.7 Mb/s
Movie name                               : Кафе бажань / La Belle Époque (2019)
Encoded date                             : UTC 2020-03-11 12:06:57
Writing application                      : v30.1.0 ('Forever And More') 64-bit
Writing library                          : libebml v1.3.6 + v1.4.9
Cover                                    : Yes
Attachments                              : cover.jpg

Video
ID                                       : 1
Format                                   : AVC
Format/Info                              : Advanced Video Codec
Format profile                           : [email protected]
Format settings                          : CABAC / 5 Ref Frames
Format settings, CABAC                   : Yes
Format settings, RefFrames               : 5 frames
Codec ID                                 : V_MPEG4/ISO/AVC
Duration                                 : 1 h 55 min
Bit rate                                 : 16.6 Mb/s
Width                                    : 1 920 pixels
Height                                   : 800 pixels
Display aspect ratio                     : 2.40:1
Frame rate mode                          : Constant
Frame rate                               : 24.000 FPS
Color space                              : YUV
Chroma subsampling                       : 4:2:0
Bit depth                                : 8 bits
Scan type                                : Progressive
Bits/(Pixel*Frame)                       : 0.451
Stream size                              : 13.4 GiB (94%)
Title                                    : -EA
Writing library                          : core 159 r2991+49 524a90c t_mod_New [[email protected] X86_64]
Encoding settings                        : cabac=1 / ref=5 / deblock=1:-3:-3 / analyse=0x3:0x133 / me=umh / subme=10 / psy=1 / fade_compensate=0.00 / psy_rd=0.97:0.00 / mixed_ref=1 / me_range=32 / chroma_me=1 / trellis=2 / 8x8dct=1 / cqm=0 / deadzone=21,11 / fast_pskip=0 / chroma_qp_offset=-2 / threads=18 / lookahead_threads=3 / sliced_threads=0 / nr=0 / decimate=0 / interlaced=0 / bluray_compat=0 / constrained_intra=0 / fgo=0 / bframes=8 / b_pyramid=2 / b_adapt=2 / b_bias=0 / direct=3 / weightb=1 / open_gop=0 / weightp=2 / keyint=240 / keyint_min=24 / scenecut=40 / intra_refresh=0 / rc_lookahead=60 / rc=crf / mbtree=0 / crf=18.6500 / qcomp=0.65 / qpmin=0:0:0 / qpmax=69:69:69 / qpstep=4 / vbv_maxrate=62500 / vbv_bufsize=78125 / crf_max=0.0 / nal_hrd=none / filler=0 / ip_ratio=1.35 / pb_ratio=1.25 / aq=3:0.85 / aq-sensitivity=10.00 / aq-factor=1.00:1.00:1.00 / aq2=0 / aq3=0
Language                                 : French
Default                                  : Yes
Forced                                   : No
Color range                              : Limited
Color primaries                          : BT.709
Transfer characteristics                 : BT.709
Matrix coefficients                      : BT.709

Audio #1
ID                                       : 2
Format                                   : AC-3
Format/Info                              : Audio Coding 3
Commercial name                          : Dolby Digital
Codec ID                                 : A_AC3
Duration                                 : 1 h 54 min
Bit rate mode                            : Constant
Bit rate                                 : 384 kb/s
Channel(s)                               : 6 channels
Channel layout                           : L R C LFE Ls Rs
Sampling rate                            : 48.0 kHz
Frame rate                               : 31.250 FPS (1536 SPF)
Bit depth                                : 16 bits
Compression mode                         : Lossy
Stream size                              : 316 MiB (2%)
Title                                    : , 5.1, 384 Kbps
Language                                 : Ukrainian
Service kind                             : Complete Main
Default                                  : Yes
Forced                                   : No

Audio #2
ID                                       : 3
Format                                   : AC-3
Format/Info                              : Audio Coding 3
Commercial name                          : Dolby Digital
Codec ID                                 : A_AC3
Duration                                 : 1 h 55 min
Bit rate mode                            : Constant
Bit rate                                 : 640 kb/s
Channel(s)                               : 6 channels
Channel layout                           : L R C LFE Ls Rs
Sampling rate                            : 48.0 kHz
Frame rate                               : 31.250 FPS (1536 SPF)
Bit depth                                : 16 bits
Compression mode                         : Lossy
Stream size                              : 526 MiB (4%)
Title                                    : , 5.1, 640 Kbps
Language                                 : French
Service kind                             : Complete Main
Default                                  : No
Forced                                   : No

Text
ID                                       : 4
Format                                   : UTF-8
Codec ID                                 : S_TEXT/UTF8
Codec ID/Info                            : UTF-8 Plain Text
Duration                                 : 1 h 54 min
Bit rate                                 : 69 b/s
Count of elements                        : 2089
Stream size                              : 58.8 KiB (0%)
Title                                    : Full
Language                                 : French
Default                                  : No
Forced                                   : No

Menu #1
00:00:00.000                             : :Chapter 01
00:08:09.375                             : :Chapter 02
00:19:41.000                             : :Chapter 03
00:27:14.667                             : :Chapter 04
00:35:17.792                             : :Chapter 05
00:51:38.750                             : :Chapter 06
01:00:39.750                             : :Chapter 07
01:08:56.917                             : :Chapter 08
01:17:29.500                             : :Chapter 09
01:25:42.667                             : :Chapter 10
01:35:14.417                             : :Chapter 11
01:46:47.708                             : :Chapter 12

Menu #2
00:00:00.097                             : en:Chapter 01
Скріншоти












Джерело:
Особиста оцінка: 0 - не дивився


 Трекер:    Зареєстрований   

Завантажити / скачати фільм українською



відео для новачків



 Зареєстрований:   2020-03-11 15:31
 Розмір:   14.19 GB 
 Оцінка фільму:   9.1/10 (Голосів: 24)
   
Інші релізи
Anonymous 







2020-03-11 15:34  
Реліз готовий!
Gybalj 
Свій


З нами з: 14.05.09
Востаннє: 24.09.20
Повідомлень: 79

2020-03-12 00:42  
Як класно, що все ж таки ще випускають фільми з нормальною багатоканальною доріжкою і вищим бітрейтом, дякую!
Wensun 
Поважний учасник


З нами з: 20.01.09
Востаннє: 23.09.20
Повідомлень: 180

2020-03-14 00:43  
Дуже сильне кіно ! 10/10. Рекомендую.
slavikgreen 
Свій


З нами з: 06.04.10
Востаннє: 23.09.20
Повідомлень: 51

2020-04-12 23:03  
Чудовий фільм!!! 10/10! вкотре пере конуюсь що французи вміють знімати прості життєві фільми та так що витягують твою душу з тебе на 1.5 години і ставлять її назад вже іншою, щасливішою та ніби якоюсь глибшою, ніби ти пізнав сам свою душу, побачив її збоку і зрозумів її знову тільки цього разу трішечки по іншому. Прекрасна гра акторів і крутий сценарій, моя душа пережила ніби піднесення на рівень вище про який я і не здогадувався що він є...
Ваш часовий пояс: GMT + 2 Години

Нова тема   Відповісти