Неаполітанський детектив / Giallo napoletano (1979) -AVC Ukr/Ita

Нові коментарі

Нова тема   Відповісти
Автор Повідомлення
Arsenfpu 
Відео Гуртом - фільмокрай
Відео Гуртом - фільмокрай


З нами з: 30.04.09
Востаннє: 11.07.20
Повідомлень: 7051

2020-03-09 23:59  
Неаполітанський детектив / Giallo napoletano (1979) -AVC Ukr/Ita

Неаполітанський детектив / Giallo napoletano (1979) -AVC Ukr/Ita


Жанр: комедія, детектив
Країна: Італія



Кінокомпанія: Irrigazione Cinematografica
Режисер: Серджо Корбуччі
Актори: Марчелло Мастроянні, Орнелла Муті, Ренато Поццетто, Мішель Пікколі, Зеуді Арайа, Капюсін, Пеппіно Де Філіппо, Олена Фіоре, Пеппі Барра, Енніо Антонеллі

Сюжет:
Скромний музикант Рафе, опинившись випадковим свідком вбивства, вирішує перекваліфікуватися в приватного детектива. В ході розслідування він зустрічається з дивними людьми і постійно потрапляє в безглузді і смішні ситуації.


Тривалість: 01:51:49
Якість: -AVC
Відео:
кодек:
розмір кадру: 718 х 412
бітрейт: 3 200 кб/с

Аудіо # 1:
мова: українська
переклад: багатоголосий закадровий UA: Культура
кодек: 2.0
бітрейт: 192 кб/с
примітка: наприкінці є 40-секундний неозвучений епізод

Аудіо # 2:
мова: італійська
переклад: оригінал
кодек: 2.0
бітрейт: 192 кб/с
Скріншоти














Про файл
General
Unique ID : 42942573821753069795764982949401035734 (0x204E705A8551509FEB62A1362BF383D6)
Complete name : C:\Giallo napoletano (1979) [Ukr,Ita] -AVC [Hurtom].
Format :
Format version : Version 4 / Version 2
File size : 2.80 GiB
Duration : 1 h 51 min
Overall bit rate : 3 586 kb/s
Movie name : Неаполітанський детектив / Giallo napoletano (1978)
Encoded date : UTC 2020-03-28 14:22:49
Writing application : v21.0.0 ('Tardigrades Will Inherit The Earth') 32-bit
Writing library : libebml v1.3.5 + v1.4.8
Cover : Yes
Attachments : cover.jpg

Video
ID : 1
Format : AVC
Format/Info : Advanced Video Codec
Format profile : [email protected]
Format settings, CABAC : Yes
Format settings, ReFrames : 14 frames
Codec ID : V_MPEG4/ISO/AVC
Duration : 1 h 51 min
Bit rate : 3 200 kb/s
Width : 718 pixels
Height : 412 pixels
Display aspect ratio : 1.85:1
Original display aspect rat : 1.85:1
Frame rate mode : Constant
Frame rate : 25.000 FPS
Color space : YUV
Chroma subsampling : 4:2:0
Bit depth : 8 bits
Scan type : Progressive
Bits/(Pixel*Frame) : 0.433
Stream size : 2.50 GiB (89%)
Writing library : core 148 r2638 7599210
Encoding settings : cabac=1 / ref=14 / deblock=1:-2:-2 / analyse=0x3:0x133 / me=umh / subme=10 / psy=1 / psy_rd=1.05:0.15 / mixed_ref=1 / me_range=32 / chroma_me=1 / trellis=2 / 8x8dct=1 / cqm=0 / deadzone=21,11 / fast_pskip=0 / chroma_qp_offset=-3 / threads=4 / lookahead_threads=1 / sliced_threads=0 / nr=0 / decimate=0 / interlaced=0 / bluray_compat=0 / constrained_intra=0 / bframes=16 / b_pyramid=2 / b_adapt=2 / b_bias=0 / direct=3 / weightb=1 / open_gop=0 / weightp=2 / keyint=250 / keyint_min=25 / scenecut=40 / intra_refresh=0 / rc=2pass / mbtree=0 / bitrate=3200 / ratetol=1.0 / qcomp=0.60 / qpmin=0 / qpmax=69 / qpstep=4 / cplxblur=20.0 / qblur=0.5 / ip_ratio=1.40 / pb_ratio=1.30 / aq=1:1.00
Language : English
Default : Yes
Forced : No
Color range : Limited
Color primaries : BT.601 NTSC
Transfer characteristics : BT.601
Matrix coefficients : BT.601

Audio #1
ID : 2
Format : AC-3
Format/Info : Audio Coding 3
Mode extension : CM (complete main)
Format settings, Endianness : Big
Codec ID : A_AC3
Duration : 1 h 51 min
Bit rate mode : Constant
Bit rate : 192 kb/s
Channel(s) : 2 channels
Channel positions : Front: L R
Sampling rate : 48.0 kHz
Frame rate : 31.250 FPS (1536 spf)
Compression mode : Lossy
Stream size : 154 MiB (5%)
Title : UA: Культура
Language : Ukrainian
Default : Yes
Forced : Yes

Audio #2
ID : 3
Format : AC-3
Format/Info : Audio Coding 3
Mode extension : CM (complete main)
Format settings, Endianness : Big
Codec ID : A_AC3
Duration : 1 h 51 min
Bit rate mode : Constant
Bit rate : 192 kb/s
Channel(s) : 2 channels
Channel positions : Front: L R
Sampling rate : 48.0 kHz
Frame rate : 31.250 FPS (1536 spf)
Compression mode : Lossy
Stream size : 154 MiB (5%)
Language : Italian
Default : No
Forced : No
Джерело:
Особиста оцінка: не дивився


Срібний реліз (на рейтинг впливає 50% завантаженого)
 Трекер:    Зареєстрований   

Завантажити / скачати фільм українською



відео для новачків



 Зареєстрований:   2020-03-28 18:20
 Розмір:   2.8 GB 
 Оцінка фільму:   9.3/10 (Голосів: 9)
   
bot 
робот


З нами з: 30.09.07
Востаннє: 26.05.05
Повідомлень: 25040

2020-03-28 18:20  
Тему перенесено з Анонси релізів до форуму Фільми


Arsenfpu

sokeel 
VIP


З нами з: 26.06.10
Востаннє: 11.07.20
Повідомлень: 467

2020-03-28 21:32  
Arsenfpu
Дякую за фільм з цілим сузір`ям зірок італійського кінематографу.

Ваш часовий пояс: GMT + 2 Години

Нова тема   Відповісти