Літак президента / Air Force One (1997) AVC Ukr/Eng | sub Eng

Нові коментарі

Нова тема   Відповісти
Автор Повідомлення
Arsenfpu 
Відео Гуртом - фільмокрай
Відео Гуртом - фільмокрай


З нами з: 30.04.09
Востаннє: 11.07.20
Повідомлень: 7051

2020-03-09 19:20  
Літак президента / Air Force One (1997) AVC Ukr/Eng | sub Eng

Літак президента / Air Force One (1997) AVC Ukr/Eng | sub Eng


Жанр: бойовик, трилер, драма
Країна: США



Кінокомпанія: Columbia Pictures Corporation, Beacon Communications, Radiant Productions
Режисер: Вольфганг Петерсен
Актори: Гаррісон Форд, Ґері Олдмен, Гленн Клоуз, Венді Крюсон, Лізель Метьюз, Пол Гілфойл, Ксандер Берклі, Вільям Х. Мейсі, Дін Стоквелл, Том Еверетт та інші

Сюжет:
Літак президента - об'єкт ВПС США, що охороняється найретельніше. Президент повертається з переговорів у Москві разом з сім'єю і адміністрацією. Але як тільки літак піднімається в повітря, його захоплює група терористів, якими керує непримиренний комуніст Коршунов. Він погрожує вбити заручників, якщо їхнього лідера, ув'язненого генерала Радека, не буде звільнено. Президенту доводиться боротися за життя близьких йому людей і за майбутнє людства.


Тривалість: 02:04:35
Якість:
Відео:
кодек:
розмір кадру: 1 024 х 432
бітрейт: 2 399 кб/с

Аудіо # 1:
мова: українська
переклад: багатоголосий закадровий ,
кодек: 2.0
бітрейт: 192 кб/с

Аудіо # 2:
мова: англійська
переклад: оригінал
кодек: 2.0
бітрейт: 192 кб/с

Субтитри:
мова: англійська
тип: програмні (м'які)
формат: *.srt
Скріншоти














Про файл
General
Unique ID : 333877315442852066261288534911581112970 (0xFB2E6E94B02AD192DBFD1F79604B4A8A)
Complete name : C:\Air Force One (1997) [Ukr,Eng] AVC [Hurtom].
Format :
Format version : Version 4 / Version 2
File size : 2.44 GiB
Duration : 2 h 4 min
Overall bit rate : 2 805 kb/s
Movie name : Літак президента / Air Force One (1997)
Encoded date : UTC 2020-03-09 15:54:10
Writing application : v21.0.0 ('Tardigrades Will Inherit The Earth') 32-bit
Writing library : libebml v1.3.5 + v1.4.8
Cover : Yes
Attachments : cover.jpg

Video
ID : 1
Format : AVC
Format/Info : Advanced Video Codec
Format profile : [email protected]
Format settings, CABAC : Yes
Format settings, ReFrames : 4 frames
Codec ID : V_MPEG4/ISO/AVC
Duration : 2 h 4 min
Bit rate : 2 399 kb/s
Width : 1 024 pixels
Height : 432 pixels
Display aspect ratio : 2.40:1
Frame rate mode : Constant
Frame rate : 23.976 (24000/1001) FPS
Color space : YUV
Chroma subsampling : 4:2:0
Bit depth : 8 bits
Scan type : Progressive
Bits/(Pixel*Frame) : 0.226
Stream size : 2.09 GiB (85%)
Writing library : core 157 r2935 545de2f
Encoding settings : cabac=1 / ref=3 / deblock=1:-1:-1 / analyse=0x3:0x113 / me=hex / subme=7 / psy=1 / psy_rd=1.00:0.15 / mixed_ref=1 / me_range=16 / chroma_me=1 / trellis=1 / 8x8dct=1 / cqm=0 / deadzone=21,11 / fast_pskip=1 / chroma_qp_offset=-3 / threads=12 / lookahead_threads=2 / sliced_threads=0 / nr=0 / decimate=1 / interlaced=0 / bluray_compat=0 / constrained_intra=0 / bframes=3 / b_pyramid=2 / b_adapt=1 / b_bias=0 / direct=1 / weightb=1 / open_gop=0 / weightp=2 / keyint=240 / keyint_min=23 / scenecut=40 / intra_refresh=0 / rc_lookahead=40 / rc=2pass / mbtree=1 / bitrate=2399 / ratetol=1.0 / qcomp=0.60 / qpmin=0 / qpmax=69 / qpstep=4 / cplxblur=20.0 / qblur=0.5 / ip_ratio=1.40 / aq=1:1.00
Default : Yes
Forced : No

Audio #1
ID : 2
Format : AC-3
Format/Info : Audio Coding 3
Mode extension : CM (complete main)
Format settings, Endianness : Big
Codec ID : A_AC3
Duration : 2 h 4 min
Bit rate mode : Constant
Bit rate : 192 kb/s
Channel(s) : 2 channels
Channel positions : Front: L R
Sampling rate : 48.0 kHz
Frame rate : 31.250 FPS (1536 spf)
Compression mode : Lossy
Stream size : 171 MiB (7%)
Title : Новий
Language : Ukrainian
Default : Yes
Forced : Yes

Audio #2
ID : 3
Format : AC-3
Format/Info : Audio Coding 3
Mode extension : CM (complete main)
Format settings, Endianness : Big
Codec ID : A_AC3
Duration : 2 h 4 min
Bit rate mode : Constant
Bit rate : 192 kb/s
Channel(s) : 2 channels
Channel positions : Front: L R
Sampling rate : 48.0 kHz
Frame rate : 31.250 FPS (1536 spf)
Compression mode : Lossy
Stream size : 171 MiB (7%)
Language : English
Default : No
Forced : No

Text
ID : 4
Format : PGS
Muxing mode : zlib
Codec ID : S_HDMV/PGS
Codec ID/Info : Picture based subtitle format used on BDs/HD-DVDs
Duration : 1 h 53 min
Bit rate : 55.8 kb/s
Count of elements : 2408
Stream size : 45.2 MiB (2%)
Language : English
Default : Yes
Forced : No
Джерело:
Особиста оцінка: нормальне


Срібний реліз (на рейтинг впливає 50% завантаженого)
 Трекер:    Зареєстрований   

Завантажити / скачати фільм українською



відео для новачків



 Зареєстрований:   2020-03-09 19:20
 Розмір:   2.44 GB 
 Оцінка фільму:   9.4/10 (Голосів: 9)
   
mishann 
Новенький


З нами з: 04.01.13
Востаннє: 29.06.20
Повідомлень: 8

2020-03-10 10:55  
Стареньке добре кіно)
Ваш часовий пояс: GMT + 2 Години

Нова тема   Відповісти