Karfagen - Echoes From Within Dragon Island (2019) [] | Symphonic Prog / Progressive Rock

Нові коментарі

Нова тема   Відповісти
Останній раз роздавалося kolpavel (2020-08-07)
Автор Повідомлення
kolpavel 
VIP


З нами з: 04.05.14
Востаннє: 07.08.20
Повідомлень: 1315

2020-03-09 17:54  
Karfagen - Echoes From Within Dragon Island (2019) [] | Symphonic Prog / Progressive Rock

Karfagen - Echoes From Within Dragon Island (2019) [] | Symphonic Prog / Progressive Rock


Стиль: Symphonic Prog Progressive Rock
Країна, місто: Україна, Харкiв
Сайти: Офіційний сайт
Видавець: Caerllysi Music
Виконавці:
Антоній Калугін - клавіші, вокал, перкусія.
Макс Величко - електричні та акустичні гітари.
Костя Шепеленко - барабани.
Олег Прохоров - бас.
Ольга Ростовська - вокал, додаткові клавішi.
Михайло Сидоренко - альт-саксофон.
Пісні:
    01 - Dragon Island Suite (Part 1) - 17:17
    02 - Dragon Island Suite (Part 2) - 18:41
    03 - My Bed Is a Boat - 02:45
    04 - Dragon Island Suite (Part 3) - 16:32
    05 - Flowing Brooks - 04:17
    06 - Winter Rooks - 03:45
    07 - Incantation (Part 1) - 06:27
    08 - Incantation (Part 2) - 06:28
    09 - My Bed Is a Boat (Instrumental Version) - 02:24
    10 - Dragon Island (Single) - 05:54
    11 - Across the Dark We Steer - 03:35
    12 - Alight Again (Studio Live) - 05:30

Тривалість: 01:33:40
Мова: англiйська
Аудіо-кодек:
Бітрейт: 594 - 904 кб/с
Джерело: трекер
Додаткова інформація:
лог якостi
AUDIOCHECKER v2.0 beta (build 457) - by Dester - [email protected]
~~~~~~~~~~~~~~~~~~~~~~~~~~~~~~~~~~
-=== DO NOT EDIT THIS FILE! ===-

Path: ...\Karfagen-2019 Echoes from Within Dragon Island

01 -=- 01. Dragon Island Suite (Part 1). -=- CDDA (100%)
02 -=- 02. Dragon Island Suite (Part 2). -=- CDDA (100%)
03 -=- 03. My Bed Is a Boat. -=- CDDA (99%)
04 -=- 04. Dragon Island Suite (Part 3). -=- CDDA (100%)
05 -=- 05. Flowing Brooks. -=- CDDA (100%)
06 -=- 06. Winter Rooks. -=- CDDA (100%)
07 -=- 07. Incantation (Part 1). -=- CDDA (100%)
08 -=- 08. Incantation (Part 2). -=- CDDA (99%)
09 -=- 09. My Bed Is a Boat (Instrumental Version). -=- CDDA (100%)
10 -=- 10. Dragon Island (Single). -=- CDDA (100%)
11 -=- 11. Across the Dark We Steer. -=- CDDA (100%)
12 -=- 12. Alight Again (Studio Live). -=- MPEG (90%)

Summary 92,33% CDDA

81766772
DRM log
foobar2000 1.3.15 / Dynamic Range Meter 1.1.1
log date: 2020-03-06 16:40:24

--------------------------------------------------------------------------------
Analyzed: Karfagen / Echoes From Within Dragon Island
--------------------------------------------------------------------------------

DR Peak RMS Duration Track
--------------------------------------------------------------------------------
DR9 0.00 dB -11.80 dB 17:17 01-Dragon Island Suite (Part 1)
DR9 -0.17 dB -11.56 dB 18:42 02-Dragon Island Suite (Part 2)
DR11 -2.15 dB -16.25 dB 2:45 03-My Bed Is a Boat
DR9 -0.27 dB -11.45 dB 16:32 04-Dragon Island Suite (Part 3)
DR9 -0.36 dB -11.97 dB 4:17 05-Flowing Brooks
DR13 -1.93 dB -17.10 dB 3:45 06-Winter Rooks
DR9 -0.72 dB -12.81 dB 6:27 07-Incantation (Part 1)
DR9 -0.85 dB -12.97 dB 6:29 08-Incantation (Part 2)
DR11 -4.39 dB -18.48 dB 2:25 09-My Bed Is a Boat (Instrumental Version)
DR8 -0.10 dB -10.90 dB 5:55 10-Dragon Island (Single)
DR10 -1.95 dB -16.03 dB 3:36 11-Across the Dark We Steer
DR8 -1.20 dB -11.30 dB 5:31 12-Alight Again (Studio Live)
--------------------------------------------------------------------------------

Number of tracks: 12
Official DR value: DR10

Samplerate: 44100 Hz
Channels: 2
Bits per sample: 16
Bitrate: 876 kbps
Codec:
================================================================================


Якщо Ви справді бажаєте підтримати українське - після прослуховування, якщо музика вам сподобалась, придбайте ліцензійний диск. Підтримаймо вітчизняних виконавців!


Срібний реліз (на рейтинг впливає 50% завантаженого)
 Трекер:    Зареєстрований   

Завантажити / скачати українську музику



відео для новачків



 Зареєстрований:   2020-03-09 17:54
 Розмір:   571 MB 
 Оцінка музики:   7/10 (Голосів: 3)
   
Ваш часовий пояс: GMT + 2 Години

Нова тема   Відповісти