Бетмен-ніндзя / Batman Ninja (2018) 720p Jap | sub Ukr

Нові коментарі

Нова тема   Відповісти
Автор Повідомлення
AniSky 
Новенький


З нами з: 13.01.17
Востаннє: 28.03.20
Повідомлень: 23

2020-03-09 16:14  
Бетмен-ніндзя / Batman Ninja (2018) BDRip720p Jap | sub Ukr

Бетмен-ніндзя / Batman Ninja (2018) 720p Jap | sub Ukr


Жанр: Пригоди, Фантастика, Бойові мистецтва
Країна: Японія



Режисер: Мудзусакі Джюнпей
Актори озвучення: Ямадера Койчі, Такаґі Ватару, Куґімія Ріе, Оно Дайсуке, Какума Ай, Оцука Хочю, Ішіда Акіра, Танака Ацуко, Каваніші Кенґо, Савабе Джюнічі

Сюжет:
Горила Ґродд, заклятий противник Бетмена, створює машину часу та з її допомогою закидає Темного лицаря, включаючи деяких його союзників і багатьох запеклих ворогів, у феодальну Японію. Там його вороги стають феодальними васалами з Джокером на чолі. Звичні високотехнологічні гаджети Бетмена стають тут марними, тому йому доведеться покладатися лише на свій розум і союзників, включаючи жінку-кішку й Бет-сім'ю, щоб відновити в цих землях порядок і повернутися в рідний сучасний Ґотем.


Тривалість: 01:25:17
Якість:
Відео:
кодек:
розмір кадру: 1280 х 720
бітрейт: 4420 кб/с

Аудіо 1:
мова: японська
переклад: оригінал
кодек: 5.1
бітрейт: 384 кб/с

Аудіо 2:
мова: японська
переклад: оригінал
кодек: E- 2.0
бітрейт: 128 кб/с

Субтитри:
мова: українська
тип: програмні (м'які)
формат: *.
Info

Video
ID : 1
Format : AVC
Format/Info : Advanced Video Codec
Format profile : [email protected]
Format settings : CABAC / 3 Ref Frames
Format settings, CABAC : Yes
Format settings, ReFrames : 3 frames
Codec ID : V_MPEG4/ISO/AVC
Duration : 1 h 25 min
Bit rate mode : Variable
Bit rate : 4 420 kb/s
Maximum bit rate : 6 630 kb/s
Width : 1 280 pixels
Height : 720 pixels
Display aspect ratio : 16:9
Frame rate mode : Constant
Frame rate : 23.976 (24000/1001) FPS
Color space : YUV
Chroma subsampling : 4:2:0
Bit depth : 8 bits
Scan type : Progressive
Bits/(Pixel*Frame) : 0.200
Stream size : 2.62 GiB (90%)
Writing library : core 148 r2715 7e75228
Encoding settings : cabac=1 / ref=3 / deblock=1:0:0 / analyse=0x1:0x111 / me=umh / subme=10 / psy=1 / psy_rd=1.00:0.00 / mixed_ref=1 / me_range=24 / chroma_me=1 / trellis=2 / 8x8dct=0 / cqm=0 / deadzone=21,11 / fast_pskip=1 / chroma_qp_offset=-2 / threads=8 / lookahead_threads=1 / sliced_threads=0 / nr=0 / decimate=1 / interlaced=0 / bluray_compat=0 / stitchable=1 / constrained_intra=0 / bframes=2 / b_pyramid=0 / b_adapt=2 / b_bias=0 / direct=3 / weightb=1 / open_gop=0 / weightp=2 / keyint=48 / keyint_min=25 / scenecut=0 / intra_refresh=0 / rc_lookahead=48 / rc=2pass / mbtree=1 / bitrate=4420 / ratetol=1.0 / qcomp=0.50 / qpmin=6 / qpmax=51 / qpstep=4 / cplxblur=20.0 / qblur=0.5 / vbv_maxrate=6630 / vbv_bufsize=8840 / nal_hrd=vbr / filler=0 / ip_ratio=1.40 / aq=1:1.00
Language : Japanese
Default : Yes
Forced : No

Audio #1
ID : 2
Format : AC-3
Format/Info : Audio Coding 3
Codec ID : A_AC3
Duration : 1 h 25 min
Bit rate mode : Constant
Bit rate : 384 kb/s
Channel(s) : 6 channels
Channel positions : Front: L C R, Side: L R, LFE
Sampling rate : 48.0 kHz
Frame rate : 31.250 FPS (1536 SPF)
Bit depth : 16 bits
Compression mode : Lossy
Stream size : 234 MiB (8%)
Language : Japanese
Service kind : Complete Main
Default : Yes
Forced : No

Audio #2
ID : 3
Format : E-AC-3
Format/Info : Enhanced Audio Coding 3
Codec ID : A_EAC3
Duration : 1 h 25 min
Bit rate mode : Constant
Bit rate : 128 kb/s
Channel(s) : 2 channels
Channel positions : Front: L R
Sampling rate : 48.0 kHz
Frame rate : 187.500 FPS (256 SPF)
Compression mode : Lossy
Stream size : 78.1 MiB (3%)
Language : Japanese
Service kind : Complete Main
Default : No
Forced : No

Text
ID : 4
Format :
Codec ID : S_TEXT/
Codec ID/Info : Advanced Sub Station Alpha
Duration : 1 h 22 min
Bit rate : 88 b/s
Count of elements : 787
Compression mode : Lossless
Stream size : 53.1 KiB (0%)
Language : Ukrainian
Default : Yes
Forced : No
Скріншоти





Переклад: AniSky



Джерело:
Особиста оцінка: 8 - мені сподобалося


Золотий реліз (завантажене не впливає на рейтинг)
 Трекер:    Зареєстрований   

Завантажити / скачати аніме українською



відео для новачків



 Зареєстрований:   2020-03-25 19:27
 Розмір:   2.93 GB 
 Оцінка аніме:   9.2/10 (Голосів: 6)
   
bot 
робот


З нами з: 30.09.07
Востаннє: 26.05.05
Повідомлень: 23729

2020-03-09 16:15  
Тему перенесено з Аніме до форуму Анонси релізів


AniSky

redcit 
VIP


З нами з: 21.12.10
Востаннє: 29.03.20
Повідомлень: 826

2020-03-10 10:31  
Це ви збираєте 400 грн на те, щоб зробити субтитри?
AniSky 
Новенький


З нами з: 13.01.17
Востаннє: 28.03.20
Повідомлень: 23

2020-03-10 22:58  
redcit
Так.

AniSky 
Новенький


З нами з: 13.01.17
Востаннє: 28.03.20
Повідомлень: 23

2020-03-12 17:44  
Збір успішно пройшов
bot 
робот


З нами з: 30.09.07
Востаннє: 26.05.05
Повідомлень: 23729

2020-03-25 19:27  
Тему перенесено з Анонси релізів до форуму Аніме


AniSky

Ваш часовий пояс: GMT + 2 Години

Нова тема   Відповісти