Майже молодята / Nearlyweds (2013) AVC Ukr/Eng | sub Eng

Нові коментарі

Нова тема   Відповісти
Автор Повідомлення
Arsenfpu 
Відео Гуртом - фільмокрай
Відео Гуртом - фільмокрай


З нами з: 30.04.09
Востаннє: 02.07.20
Повідомлень: 7028

2020-03-08 23:15  
Майже молодята / Nearlyweds (2013) AVC Ukr/Eng | sub Eng

Майже молодята / Nearlyweds (2013) AVC Ukr/Eng | sub Eng


Жанр: комедія, романтичний
Країна: США



Кінокомпанія: Wonderfly Films, Pitchblack Pictures
Режисер: Марк Гріффітс
Актори: Даніель Панабейкер, Джессіка Паркер Кеннеді, Бріттні Ірвін, Райан Кеннеді, Тревіс Мілн, Стів Бачич, Крісті Лейн, Наомі Джудд, Чарльз Сігел, Джаред Кісо

Сюжет:
Коли три подруги - Ерін, Кейсі і Стелла - дізнаються, що через бюрократичну помилку шлюб кожної з них тепер вважається недійсним, вони розуміють - прийшла пора оцінити своє сімейне життя. І дійсно, їм є про що задуматися: Ерін б'ється зі свекрухою за увагу чоловіка; Кейсі намагається з'ясувати, чи серйозно ставиться її чоловік до життя в шлюбі; а Стелла повинна визначитися, що для неї важливіше - кар'єра чи роль берегині домашнього вогнища. Тепер подругам належить зробити нелегкий вибір - знову піти під вінець або ...


Тривалість: 01:26:37
Якість: AVC
Відео:
кодек:
розмір кадру: 1 024 х 576
бітрейт: 2 499 кб/с

Аудіо # 1:
мова: українська
переклад: багатоголосий закадровий
кодек: 2.0
бітрейт: 192 кб/с

Аудіо # 2:
мова: англійська
переклад: оригінал
кодек: 2.0
бітрейт: 192 кб/с

Субтитри:
мова: англійська
тип: програмні (м'які)
формат: *.srt
Скріншоти














Про файл
General
Unique ID : 302503951453409840386645108601455415949 (0xE394244F9F9EE5EE706139264A14928D)
Complete name : C:\Nearlyweds (2013) [Ukr,Eng] AVC [Hurtom].
Format :
Format version : Version 4 / Version 2
File size : 1.75 GiB
Duration : 1 h 26 min
Overall bit rate : 2 886 kb/s
Movie name : Майже молодята / Nearlyweds (2013)
Encoded date : UTC 2020-03-27 21:32:11
Writing application : v21.0.0 ('Tardigrades Will Inherit The Earth') 32-bit
Writing library : libebml v1.3.5 + v1.4.8
Cover : Yes
Attachments : cover.jpg

Video
ID : 1
Format : AVC
Format/Info : Advanced Video Codec
Format profile : [email protected]
Format settings, CABAC : Yes
Format settings, ReFrames : 4 frames
Codec ID : V_MPEG4/ISO/AVC
Duration : 1 h 26 min
Bit rate : 2 499 kb/s
Width : 1 024 pixels
Height : 576 pixels
Display aspect ratio : 16:9
Frame rate mode : Constant
Frame rate : 23.976 (24000/1001) FPS
Color space : YUV
Chroma subsampling : 4:2:0
Bit depth : 8 bits
Scan type : Progressive
Bits/(Pixel*Frame) : 0.177
Stream size : 1.51 GiB (87%)
Writing library : core 157 r2935 545de2f
Encoding settings : cabac=1 / ref=3 / deblock=1:-1:-1 / analyse=0x3:0x113 / me=hex / subme=7 / psy=1 / psy_rd=1.00:0.15 / mixed_ref=1 / me_range=16 / chroma_me=1 / trellis=1 / 8x8dct=1 / cqm=0 / deadzone=21,11 / fast_pskip=1 / chroma_qp_offset=-3 / threads=12 / lookahead_threads=2 / sliced_threads=0 / nr=0 / decimate=1 / interlaced=0 / bluray_compat=0 / constrained_intra=0 / bframes=3 / b_pyramid=2 / b_adapt=1 / b_bias=0 / direct=1 / weightb=1 / open_gop=0 / weightp=2 / keyint=240 / keyint_min=23 / scenecut=40 / intra_refresh=0 / rc_lookahead=40 / rc=2pass / mbtree=1 / bitrate=2499 / ratetol=1.0 / qcomp=0.60 / qpmin=0 / qpmax=69 / qpstep=4 / cplxblur=20.0 / qblur=0.5 / ip_ratio=1.40 / aq=1:1.00
Default : Yes
Forced : No

Audio #1
ID : 2
Format : AC-3
Format/Info : Audio Coding 3
Mode extension : CM (complete main)
Format settings, Endianness : Big
Codec ID : A_AC3
Duration : 1 h 26 min
Bit rate mode : Constant
Bit rate : 192 kb/s
Channel(s) : 2 channels
Channel positions : Front: L R
Sampling rate : 48.0 kHz
Frame rate : 31.250 FPS (1536 spf)
Compression mode : Lossy
Stream size : 119 MiB (7%)
Title : К1
Language : Ukrainian
Default : Yes
Forced : Yes

Audio #2
ID : 3
Format : AC-3
Format/Info : Audio Coding 3
Mode extension : CM (complete main)
Format settings, Endianness : Big
Codec ID : A_AC3
Duration : 1 h 26 min
Bit rate mode : Constant
Bit rate : 192 kb/s
Channel(s) : 2 channels
Channel positions : Front: L R
Sampling rate : 48.0 kHz
Frame rate : 31.250 FPS (1536 spf)
Compression mode : Lossy
Stream size : 119 MiB (7%)
Language : English
Default : No
Forced : No

Text #1
ID : 4
Format : UTF-8
Codec ID : S_TEXT/UTF8
Codec ID/Info : UTF-8 Plain Text
Duration : 1 h 25 min
Bit rate : 77 b/s
Count of elements : 1991
Stream size : 48.6 KiB (0%)
Language : English
Default : Yes
Forced : No

Text #2
ID : 5
Format : UTF-8
Codec ID : S_TEXT/UTF8
Codec ID/Info : UTF-8 Plain Text
Duration : 1 h 25 min
Bit rate : 83 b/s
Count of elements : 2161
Stream size : 52.4 KiB (0%)
Language : English
Default : No
Forced : No
Джерело:
За допомогу в створенні релізу дякую пану PuMa.ua
Особиста оцінка: не дивився


 Трекер:    Зареєстрований   

Завантажити / скачати фільм українською



відео для новачків



 Зареєстрований:   2020-03-28 01:02
 Розмір:   1.75 GB 
 Оцінка фільму:   8.5/10 (Голосів: 6)
   
bot 
робот


З нами з: 30.09.07
Востаннє: 26.05.05
Повідомлень: 24915

2020-03-28 01:02  
Тему перенесено з Анонси релізів до форуму Фільми


Arsenfpu

andriy_nv 
VIP


З нами з: 27.06.08
Востаннє: 02.07.20
Повідомлень: 1039

2020-04-01 19:22  
хороша легка романтична комедія
з мораллю Wink (2)

Ваш часовий пояс: GMT + 2 Години

Нова тема   Відповісти