Русалонька / The Little Mermaid (2018) 1080p Ukr/Eng

Нові коментарі

Нова тема   Відповісти
Автор Повідомлення
Anonymous 







2020-03-08 18:04  
Русалонька / The Little Mermaid (2018) 1080p Ukr/Eng

Русалонька / The Little Mermaid (2018) 1080p Ukr/Eng


Жанр: пригодницький, драма, казка
Країна: США



Кінокомпанія: Conglomerate Media, Kingsway Productions (II)
Режисер: Блейк Харріс , Кріс Бушар
Актори: Уільям Моуслі, Поппі Дрейтон, Лорето Пералта, Армандо Гутьєррез, Ширлі МакЛейн та ін.

Сюжет:
Молодий репортер Кем Харрісон та його племінниця Ель відправляються в цирк, де знайомляться з прекрасним і чарівним створінням — русалонькою Елізабет. Мешканку океану тримають там проти її волі, і Кем вирішує допомогти Елізабет звільнитися.


Тривалість: 01:25:сс
Якість:
Відео:
кодек:
розмір кадру: 1920 х 800
бітрейт: 4548 кб/с

Аудіо # 1:
мова: українська
переклад: багатоголосий закадровий
кодек: 2.0
бітрейт: 192 кб/с

Аудіо # 2:
мова: англійська
переклад: оригінал
кодек: 5.1
бітрейт: 640 кб/с

Джерело озвучення:

Запис звуку з ТБ - xslim, Palamar
Info
Код:
General
Unique ID                                : 245928948204178540203112156070323370137 (0xB904314B34D638626564D6F932D33899)
Complete name                            : The Little Mermaid (2018) 1080p [Ukr_Eng] [Hurtom].
Format                                   :
Format version                           : Version 4
File size                                : 3.21 GiB
Duration                                 : 1 h 25 min
Overall bit rate                         : 5 383 kb/s
Movie name                               : Русалонька (2018)
Encoded date                             : UTC 2020-03-08 13:46:44
Writing application                      : v37.0.0 ('Leave It') 32-bit
Writing library                          : libebml v1.3.9 + v1.5.2
Cover                                    : Yes
Attachments                              : cover.jpg

Video
ID                                       : 1
Format                                   : AVC
Format/Info                              : Advanced Video Codec
Format profile                           : [email protected]
Format settings                          : CABAC / 4 Ref Frames
Format settings, CABAC                   : Yes
Format settings, ReFrames                : 4 frames
Codec ID                                 : V_MPEG4/ISO/AVC
Duration                                 : 1 h 25 min
Bit rate                                 : 4 548 kb/s
Width                                    : 1 920 pixels
Height                                   : 800 pixels
Display aspect ratio                     : 2.40:1
Frame rate mode                          : Constant
Frame rate                               : 23.976 (24000/1001) FPS
Color space                              : YUV
Chroma subsampling                       : 4:2:0
Bit depth                                : 8 bits
Scan type                                : Progressive
Bits/(Pixel*Frame)                       : 0.124
Stream size                              : 2.71 GiB (85%)
Language                                 : English
Default                                  : Yes
Forced                                   : No
Color range                              : Limited
Color primaries                          : BT.709
Transfer characteristics                 : BT.709
Matrix coefficients                      : BT.709

Audio #1
ID                                       : 2
Format                                   : AC-3
Format/Info                              : Audio Coding 3
Commercial name                          : Dolby Digital
Codec ID                                 : A_AC3
Duration                                 : 1 h 25 min
Bit rate mode                            : Constant
Bit rate                                 : 192 kb/s
Channel(s)                               : 2 channels
Channel layout                           : L R
Sampling rate                            : 48.0 kHz
Frame rate                               : 31.250 FPS (1536 SPF)
Bit depth                                : 16 bits
Compression mode                         : Lossy
Stream size                              : 117 MiB (4%)
Language                                 : Ukrainian
Service kind                             : Complete Main
Default                                  : Yes
Forced                                   : Yes

Audio #2
ID                                       : 3
Format                                   : E-AC-3
Format/Info                              : Enhanced AC-3
Commercial name                          : Dolby Digital Plus
Codec ID                                 : A_EAC3
Duration                                 : 1 h 25 min
Bit rate mode                            : Constant
Bit rate                                 : 640 kb/s
Channel(s)                               : 6 channels
Channel layout                           : L R C LFE Ls Rs
Sampling rate                            : 48.0 kHz
Frame rate                               : 31.250 FPS (1536 SPF)
Compression mode                         : Lossy
Stream size                              : 391 MiB (12%)
Language                                 : English
Service kind                             : Complete Main
Default                                  : No
Forced                                   : No

Скріншоти





Джерело:


 Трекер:    Зареєстрований   

Завантажити / скачати фільм українською



відео для новачків



 Зареєстрований:   2020-03-08 18:04
 Розмір:   3.21 GB 
 Оцінка фільму:   8.9/10 (Голосів: 12)
   
Інші релізи
   Русалонька / The Little Mermaid (2018) Arsenfpu  7 / 0   1.34 GB   2020-03-29 20:54 
Ваш часовий пояс: GMT + 2 Години

Нова тема   Відповісти