Найкращий стрілець (Кращий стрілець) / Top gun (1986) AVC 2xUkr/Eng | Sub Eng

Нові коментарі

Нова тема   Відповісти
Автор Повідомлення
21jumpstreet 
VIP


З нами з: 03.07.12
Востаннє: 14.07.20
Повідомлень: 1096

2020-03-08 08:44  
Найкращий стрілець (Кращий стрілець) / Top gun (1986) AVC 2xUkr/Eng | Sub Eng

Найкращий стрілець (Кращий стрілець) / Top gun (1986) AVC 2xUkr/Eng | Sub Eng


Жанр: бойовик, драма
Країна: США



Кінокомпанія: Paramount Pictures
Режисер: Тоні Скотт
Актори: Том Круз, Келлі Макгіліс, Вел Кілмер, Майкл Айронсайд та ін.

Сюжет:
Майстерний пілот винищувача Ф-14, курсант елітного училища ВМС США, який літає як бог і керований як в житті, так і в небі інстинктами, а не розумом, закохується в інструктора училища, астрофізика, яка довгий час відмовляє йому у взаємності. Поступиться вона його білозубій усмішці?


Тривалість: 01:49:27
Якість: AVC
Відео:
кодек:
розмір кадру: 1024 х 576
бітрейт: 2100 кб/с

Аудіо # 1:
мова: українська
переклад: двоголосий закадровий 1+1
кодек: 2.0
бітрейт: 192 кб/с
Інформація про озвучення:
Аудіо # 2:
мова: українська
переклад: багатоголосий закадровий ICTV (з 5.1)
кодек: 2.0
бітрейт: 192 кб/с
Інформація про озвучення:
Аудіо # 3:
мова: англійська
переклад: оригінал
кодек: 5.1
бітрейт: 384 кб/с

Джерело озвучення:
,

Субтитри:
мова: англійська
тип: програмні (м'які)
формат: *.srt
Скріншоти




Info:
C:\Users\Admin\Downloads\Top gun (1986) [2xUkr,Eng] AVC [Open Matte] [Hurtom].
General
Unique ID : 154801591217270451293410279482286177559 (0x7475B3B6097529328E757A2DEFA07D17)
Complete name : C:\Users\Admin\Downloads\Top gun (1986) [2xUkr,Eng] AVC [Open Matte] [Hurtom].
Format :
Format version : Version 4 / Version 2
File size : 2.20 GiB
Duration : 1 h 49 min
Overall bit rate : 2 865 kb/s
Movie name : Top Gun (1986) AVC [2xUkr,Eng] [Open Matte]
Encoded date : UTC 2020-03-10 07:11:01
Writing application : v22.0.0 ('At The End Of The World') 32-bit
Writing library : libebml v1.3.5 + v1.4.8
Video #1
ID : 1
Format : AVC
Format/Info : Advanced Video Codec
Format profile : [email protected]
Format settings, CABAC : Yes
Format settings, ReFrames : 8 frames
Codec ID : V_MPEG4/ISO/AVC
Duration : 1 h 49 min
Bit rate : 2 100 kb/s
Width : 1 024 pixels
Height : 576 pixels
Display aspect ratio : 16:9
Frame rate mode : Constant
Frame rate : 23.976 (24000/1001) FPS
Color space : YUV
Chroma subsampling : 4:2:0
Bit depth : 8 bits
Scan type : Progressive
Bits/(Pixel*Frame) : 0.148
Stream size : 1.61 GiB (73%)
Title : (AVC) / MPEG-4 AVC/ / 2100 kbps / 1024x576 / 23.976 fps
Writing library : core 146 r2538 121396c
Encoding settings : cabac=1 / ref=8 / deblock=1:0:0 / analyse=0x3:0x113 / me=umh / subme=10 / psy=1 / psy_rd=1.00:0.00 / mixed_ref=1 / me_range=32 / chroma_me=1 / trellis=2 / 8x8dct=1 / cqm=0 / deadzone=21,11 / fast_pskip=0 / chroma_qp_offset=-2 / threads=6 / lookahead_threads=1 / sliced_threads=0 / nr=0 / decimate=1 / interlaced=0 / bluray_compat=0 / constrained_intra=0 / bframes=9 / b_pyramid=2 / b_adapt=2 / b_bias=0 / direct=3 / weightb=1 / open_gop=0 / weightp=2 / keyint=250 / keyint_min=23 / scenecut=40 / intra_refresh=0 / rc_lookahead=50 / rc=2pass / mbtree=1 / bitrate=2100 / ratetol=1.0 / qcomp=0.60 / qpmin=0 / qpmax=69 / qpstep=4 / cplxblur=20.0 / qblur=0.5 / vbv_maxrate=14000 / vbv_bufsize=14000 / nal_hrd=none / filler=0 / ip_ratio=1.40 / aq=1:1.00
Language : English
Default : Yes
Forced : Yes
Audio #2
ID : 2
Format : AC-3
Format/Info : Audio Coding 3
Mode extension : CM (complete main)
Format settings, Endianness : Big
Codec ID : A_AC3
Duration : 1 h 49 min
Bit rate mode : Constant
Bit rate : 192 kb/s
Channel(s) : 2 channels
Channel positions : Front: L R
Sampling rate : 48.0 kHz
Frame rate : 31.250 FPS (1536 spf)
Compression mode : Lossy
Stream size : 151 MiB (7%)
Title : top gun 1+1 iptv
Language : Ukrainian
Default : Yes
Forced : No
Audio #3
ID : 3
Format : AC-3
Format/Info : Audio Coding 3
Mode extension : CM (complete main)
Format settings, Endianness : Big
Codec ID : A_AC3
Duration : 1 h 49 min
Bit rate mode : Constant
Bit rate : 192 kb/s
Channel(s) : 2 channels
Channel positions : Front: L R
Sampling rate : 48.0 kHz
Frame rate : 31.250 FPS (1536 spf)
Compression mode : Lossy
Stream size : 151 MiB (7%)
Title : Top Gun ICTV
Language : Ukrainian
Default : No
Forced : No
Audio #4
ID : 4
Format : AC-3
Format/Info : Audio Coding 3
Mode extension : CM (complete main)
Format settings, Endianness : Big
Codec ID : A_AC3
Duration : 1 h 49 min
Bit rate mode : Constant
Bit rate : 384 kb/s
Channel(s) : 6 channels
Channel positions : Front: L C R, Side: L R, LFE
Sampling rate : 48.0 kHz
Frame rate : 31.250 FPS (1536 spf)
Compression mode : Lossy
Stream size : 301 MiB (13%)
Title : Original (Eng) / / 6 ch / 384 kbps / 48 kHz
Language : English
Default : No
Forced : No
Text #5
ID : 5
Format : UTF-8
Codec ID : S_TEXT/UTF8
Codec ID/Info : UTF-8 Plain Text
Duration : 1 h 40 min
Bit rate : 59 b/s
Count of elements : 1386
Stream size : 43.4 KiB (0%)
Title : Full (Eng) / S_TEXT/UTF8
Language : English
Default : No
Forced : No
Величезні подяки:
1 доріжка - запис - xslim, krigg070, зведення - kryk-v.ya.
2 доріжка - Romario_O

Джерело: &
Особиста оцінка: 10 - без зайвих вагань рекомендую всім! Скоро сиквел вийде.
РЕЛІЗ ДИВИТИСЯ ТІЛЬКИ В ОЗВУЧЕННІ 1+1. РОЗШУКУЄТЬСЯ ОЗВУЧЕННЯ ВІД КАНАЛУ ІНТЕР. ЯКЩО В КОГОСЬ Є, КИДАЙТЕ В ПП.


Срібний реліз (на рейтинг впливає 50% завантаженого)
 Трекер:    Зареєстрований   

Завантажити / скачати фільм українською



відео для новачків



 Зареєстрований:   2020-03-10 10:19
 Розмір:   2.2 GB 
 Оцінка фільму:   9.5/10 (Голосів: 23)
   
bot 
робот


З нами з: 30.09.07
Востаннє: 26.05.05
Повідомлень: 25060

2020-03-08 08:44  
Тему перенесено з Фільми до форуму Анонси релізів


21jumpstreet

bot 
робот


З нами з: 30.09.07
Востаннє: 26.05.05
Повідомлень: 25060

2020-03-08 09:13  
Тему перенесено з Анонси релізів до форуму Фільми


21jumpstreet

leicheman 
Відео Гуртом - фільмокрай
Відео Гуртом - фільмокрай


З нами з: 03.07.14
Востаннє: 14.07.20
Повідомлень: 5144

2020-03-08 09:32  
оупен мейт це звісно добре, але щось з кольорами геть погано у ньому.
21jumpstreet 
VIP


З нами з: 03.07.12
Востаннє: 14.07.20
Повідомлень: 1096

2020-03-08 09:33  
leicheman
Саме такий варіант показали плюси.

igor911 
Модератор відео


З нами з: 18.01.08
Востаннє: 14.07.20
Повідомлень: 14888

2020-03-08 09:46  
21jumpstreet написано:
Movie name : Лучший стрелок
...
Title : Top Gun 1+1
...
Title : Top Gun ICTV
...
Title : Original (Eng) / / 6 ch / 384 kbps / 48 kHz
Language : English

Вкотре прошу - при муксуванні звертайте, будь ласка, увагу на підпис тегів, заголовків, доріжки. Також не вибрано поле "мова" для обох українських доріжок (в деяких програвачах по автомату відтворюватиметься англійська доріжка, бо вона з більшою к-тю каналів та вищим бітрейтом, навіть якщо в налаштуваннях прописано пріорітет для укр. доріжок, але тут вони не позначені як українські)

21jumpstreet 
VIP


З нами з: 03.07.12
Востаннє: 14.07.20
Повідомлень: 1096

2020-03-08 10:06  
ТОРРЕНТ ФАЙЛ ОНОВЛЕНО! ПЕРЕЙМЕНОВАНО ЗАГОЛОВОК!
igor911 
Модератор відео


З нами з: 18.01.08
Востаннє: 14.07.20
Повідомлень: 14888

2020-03-08 10:07  
21jumpstreet, треба оновити MI
21jumpstreet 
VIP


З нами з: 03.07.12
Востаннє: 14.07.20
Повідомлень: 1096

2020-03-08 10:08  
igor911
вже оновив

roseintherain 
Поважний учасник


З нами з: 06.02.16
Востаннє: 14.07.20
Повідомлень: 154

2020-03-09 01:41  
leicheman написано:
оупен мейт це звісно добре, але щось з кольорами геть погано у ньому.

amazon затемнює свої опенмейти і граються з кольорами, я так зрозумів це їхня власна обробка (або на їх замовлення) оригінальних сканів. Мало того, вони ще і роблять zoom до 16:9 (1.78) наприклад з оригіналу 1.85:1

leicheman 
Відео Гуртом - фільмокрай
Відео Гуртом - фільмокрай


З нами з: 03.07.14
Востаннє: 14.07.20
Повідомлень: 5144

2020-03-09 19:08  
del
21jumpstreet 
VIP


З нами з: 03.07.12
Востаннє: 14.07.20
Повідомлень: 1096

2020-03-10 10:20  
Торент файл оновлено! Замінено доріжку 1+1 на більш якісну.
kinaxem 
Відео Гуртом - фільмокрай
Відео Гуртом - фільмокрай


З нами з: 21.12.16
Востаннє: 14.07.20
Повідомлень: 527

2020-03-10 14:35  
21jumpstreet написано:
Movie name : Top Gun (1986) AVC [2xUkr,Eng] [Open Matte]

Невже було так важко дописати тут ще назву українською, і додати до файлу постер? Це хвилина роботи.

Додано через 1 хвилину 6 секунд:

21jumpstreet написано:

Language : Ukrainian
Default : Yes
Forced : No

Дефолтно українську доріжку так і не поставили.

Ваш часовий пояс: GMT + 2 Години

Нова тема   Відповісти