Форсаж 5 (Шалена п'ятірка, Швидка п'ятірка, Пограбування в Ріо, Fast & Furious) [Театральна версія] / Fast Five [Theatrical Cut] (2011) Remux 1080p 2xUkr/Eng | Sub Eng

Нові коментарі

Нова тема   Відповісти
Автор Повідомлення
MakRA 
VIP


З нами з: 11.11.18
Востаннє: 30.09.20
Повідомлень: 1120

2020-03-08 03:39  
Форсаж 5 / Форсаж 5: Шалена п'ятірка [Театральна версія] / Fast Five [Theatrical Cut] (2011) Remux 1080p 2xUkr/Eng | Sub Eng


«Все вирішує швидкість, все вирішує команда»

Українські постери:


Альтернативні обкладинки:





Жанр: екшн, трилер
Країна: США , Японія



Кінокомпанія: Universal Pictures, Original Film, One Race Productions
Режисер: Джастін Лін [Justin Lin]
Актори: Він Дізель [Vin Diesel], Пол Вокер [Paul Walker], Джордана Брюстер [Jordana Brewster], Тайріз Ґібсон [Tyrese Gibson], Двейн Джонсон [Dwayne Johnson], Лудакріс [Ludacris], Ельза Патакі [Elsa Pataky], Гал Гадот [Gal Gadot], Тего Калдерон [Tego Calderon], Дон Омар [Don Omar], Метт Шульце [Matt Schulze], Сунг Канг [Sung Kang], Жоакім де Альмейда [Joaquim de Almeida], Майкл Ірбі [Michael Irby], Фернандо Чієн [Fernando Chien]

Сюжет:
Звільнивши Домініка з-під варти, Брайан і Міа Торетто були змушені перетнути кілька кордонів, щоб сховатися від влади. Загнаним у кут у Ріо-де-Жанейро, їм належить виконати останню роботу в ім'я власної волі. Збираючи команду найкращих гонщиків, вони розуміють, що протистояти їм належить корумпованому ділку, який бажає їх смерті. Але він не єдиний, хто йде по сліду героїв. Крутий федеральний агент Люк Хоббс завжди виходить переможцем — а цього разу завданням його загону стало піймання Дома та Брайана. Однак опинившись в Бразилії, Хоббс не може відрізнити хороших хлопців від поганих, і заганяючи здобич у кут, йому доводиться покладатися тільки на власні інстинкти ... поки його ніхто не випередив.


Тривалість: 02:10:21
Якість: Remux 1080p [Theatrical Cut]
Відео:
кодек:
розмір кадру: 1920 х 1080
бітрейт: 21,5 Mб/с

Аудіо # 1:
мова: українська
переклад: професійний дубльований | LeDoyen
кодек: 5.1
бітрейт: 384 кб/с
назву перекладено як: "Форсаж 5"
Про озвучення:

Переклад: Федора Сидорука
Режисер дубляжу: Іван Марченко
Звукорежисери: Дмитро Мялковський
Звукорежисер перезапису: Боб Шевяков
Координатор проекту: Мирослава Сидорук
Ролі дублювали: Домінік Торрето – Борис Георгієвський, Браян О'Коннер – Дмитро Гаврилов, Мія – Наталя Романько-Кисельова, Люк Гобс – Михайло Жонін, Жизель – Юлія Перенчук, Реєс – Євген Пашин, Лудакріс – Михайло Тишин, Дмитро Сова, Сергій Малюга, Вілкс –Андрій Федінчик, Санґ Кенґ – Іван Розін, Зізі – Андрій Твердак, голос судді на початку фільму – Олександр Ігнатуша, Лео – Назар Задніпровський, Юрій Кудрявець та інші.

Фільм надано компанією Universal Pictures, дубльовано студією LeDoyen на замовлення B&H Film Distribution.
Аудіо # 2:
мова: українська
переклад: багатоголосий закадровий
кодек: 2.0
бітрейт: 192 кб/с
назву перекладено як: "Форсаж 5: Шалена п'ятірка"
Про озвучення:
Ролі озвучили: Анатолій Зіновенко, Михайло Войчук, Лідія Муращенко і Ярослав Чорненький.

Фільм озвучено на студії каналу "Україна".
Аудіо # 3:
мова: англійська
переклад: оригінал
кодек: -HD MA 5.1
бітрейт: 3987 кб/с

Аудіо # 4:
мова: англійська
переклад: оригінал
кодек: 5.1
бітрейт: 448 кб/с

Аудіо # 5:
мова: англійська
переклад: оригінал
кодек: 2.0
бітрейт: 64 кб/с

Субтитри # 1-2: (Forced) (на діалоги португальською) | (SDH)
мова: англійська
тип: пререндерні
формат: *.pgs

Субтитри # 3-5: (Full) | (Full SDH-Colored) | (Commentary with Director Justin Lin)
мова: англійська
тип: програмні (м'які)
формат: *.srt

Збережено оригінальні розділи, як на Blu-ray.
Info
General
Unique ID : 124003288552649332951376206586517651402 (0x5D4A2A27541251DE33D76E0CA487FFCA)
Complete name : I:\Fast & Furious Movie Collection\Fast Five [Theatrical Cut] (2011) Remux 1080p 2xUkrEng Sub Eng [Hurtom].
Format :
Format version : Version 4
File size : 24.2 GiB
Duration : 2 h 10 min
Overall bit rate mode : Variable
Overall bit rate : 26.6 Mb/s
Movie name : Форсаж 5 / Форсаж 5: Шалена п'ятірка [Театральна версія] / Fast Five [Theatrical Cut] (2011) Remux 1080p 2xUkr/Eng | Sub Eng [Hurtom]
Encoded date : UTC 2020-03-07 23:14:46
Writing application : v25.0.0 ('Prog Noir') 64-bit
Writing library : libebml v1.3.6 + v1.4.9
Cover : Yes
Attachments : cover.jpg

Video
ID : 1
Format : AVC
Format/Info : Advanced Video Codec
Format profile : [email protected]
Format settings : CABAC / 4 Ref Frames
Format settings, CABAC : Yes
Format settings, Reference fra : 4 frames
Codec ID : V_MPEG4/ISO/AVC
Duration : 2 h 10 min
Bit rate mode : Variable
Bit rate : 21.5 Mb/s
Maximum bit rate : 30.0 Mb/s
Width : 1 920 pixels
Height : 1 080 pixels
Display aspect ratio : 16:9
Frame rate mode : Constant
Frame rate : 23.976 (24000/1001) FPS
Color space : YUV
Chroma subsampling : 4:2:0
Bit depth : 8 bits
Scan type : Progressive
Bits/(Pixel*Frame) : 0.432
Stream size : 19.5 GiB (81%)
Title : Fast Five [Theatrical Cut] (2011) Remux 1080p 2xUkr/Eng | Sub Eng [Hurtom]
Language : Ukrainian
Default : Yes
Forced : Yes
Color range : Limited
Color primaries : BT.709
Transfer characteristics : BT.709
Matrix coefficients : BT.709

Audio #1
ID : 2
Format : AC-3
Format/Info : Audio Coding 3
Commercial name : Dolby Digital
Codec ID : A_AC3
Duration : 2 h 10 min
Bit rate mode : Constant
Bit rate : 384 kb/s
Channel(s) : 6 channels
Channel layout : L R C LFE Ls Rs
Sampling rate : 48.0 kHz
Frame rate : 31.250 FPS (1536 SPF)
Compression mode : Lossy
Stream size : 358 MiB (1%)
Title : DUB [DVD] 5.1 | LeDoyen
Language : Ukrainian
Service kind : Complete Main
Default : Yes
Forced : Yes

Audio #2
ID : 3
Format : AC-3
Format/Info : Audio Coding 3
Commercial name : Dolby Digital
Codec ID : A_AC3
Duration : 2 h 10 min
Bit rate mode : Constant
Bit rate : 192 kb/s
Channel(s) : 2 channels
Channel layout : L R
Sampling rate : 48.0 kHz
Frame rate : 31.250 FPS (1536 SPF)
Compression mode : Lossy
Stream size : 179 MiB (1%)
Title : MVO [УКРАЇНА] 2.0 | студія ТРК "Україна"
Language : Ukrainian
Service kind : Complete Main
Default : No
Forced : No

Audio #3
ID : 4
Format : XLL
Format/Info : Digital Theater Systems
Commercial name : -HD Master Audio
Codec ID : A_DTS
Duration : 2 h 10 min
Bit rate mode : Variable
Bit rate : 3 987 kb/s
Channel(s) : 6 channels
Channel layout : C L R Ls Rs LFE
Sampling rate : 48.0 kHz
Frame rate : 93.750 FPS (512 SPF)
Bit depth : 24 bits
Compression mode : Lossless
Stream size : 3.63 GiB (15%)
Title : Original -HD MA 5.1
Language : English
Default : No
Forced : No

Audio #4
ID : 5
Format : AC-3
Format/Info : Audio Coding 3
Commercial name : Dolby Digital
Codec ID : A_AC3
Duration : 2 h 10 min
Bit rate mode : Constant
Bit rate : 448 kb/s
Channel(s) : 6 channels
Channel layout : L R C LFE Ls Rs
Sampling rate : 48.0 kHz
Frame rate : 31.250 FPS (1536 SPF)
Compression mode : Lossy
Stream size : 418 MiB (2%)
Title : Original 5.1
Language : English
Service kind : Complete Main
Default : No
Forced : No

Audio #5
ID : 6
Format : LC SBR
Format/Info : Advanced Audio Codec Low Complexity with Spectral Band Replication
Commercial name : HE-
Format settings : Explicit
Codec ID : A_AAC-2
Duration : 2 h 10 min
Bit rate : 64.0 kb/s
Channel(s) : 2 channels
Channel layout : L R
Sampling rate : 48.0 kHz
Frame rate : 23.438 FPS (2048 SPF)
Compression mode : Lossy
Stream size : 59.7 MiB (0%)
Title : Original 2.0 | Commentary with Director Justin Lin
Language : English
Default : No
Forced : No

Text #1
ID : 7
Format : PGS
Muxing mode : zlib
Codec ID : S_HDMV/PGS
Codec ID/Info : Picture based subtitle format used on BDs/HD-DVDs
Duration : 2 h 0 min
Bit rate : 2 684 b/s
Count of elements : 250
Stream size : 2.31 MiB (0%)
Title : Eng (Forced) Non-English parts only | на діалоги португальською
Language : English
Default : No
Forced : Yes

Text #2
ID : 8
Format : PGS
Muxing mode : zlib
Codec ID : S_HDMV/PGS
Codec ID/Info : Picture based subtitle format used on BDs/HD-DVDs
Duration : 2 h 3 min
Bit rate : 30.5 kb/s
Count of elements : 2748
Stream size : 27.0 MiB (0%)
Title : Eng (SDH) PGS
Language : English
Default : No
Forced : No

Text #3
ID : 9
Format : UTF-8
Codec ID : S_TEXT/UTF8
Codec ID/Info : UTF-8 Plain Text
Duration : 2 h 3 min
Bit rate : 44 b/s
Count of elements : 1374
Stream size : 40.8 KiB (0%)
Title : Eng (Full) SRT
Language : English
Default : No
Forced : No

Text #4
ID : 10
Format : UTF-8
Codec ID : S_TEXT/UTF8
Codec ID/Info : UTF-8 Plain Text
Duration : 2 h 3 min
Bit rate : 51 b/s
Count of elements : 1374
Stream size : 46.4 KiB (0%)
Title : Eng (Full SDH-Colored) SRT
Language : English
Default : No
Forced : No

Text #5
ID : 11
Format : UTF-8
Codec ID : S_TEXT/UTF8
Codec ID/Info : UTF-8 Plain Text
Duration : 2 h 4 min
Bit rate : 108 b/s
Count of elements : 2283
Stream size : 99.0 KiB (0%)
Title : Eng (Full) SRT | by commentary with Director Justin Lin
Language : English
Default : No
Forced : No

Menu
00:00:00.000 : en:Chapter 1
00:07:45.715 : en:Chapter 2
00:17:29.465 : en:Chapter 3
00:23:01.839 : en:Chapter 4
00:28:21.575 : en:Chapter 5
00:34:55.635 : en:Chapter 6
00:40:46.319 : en:Chapter 7
00:48:41.585 : en:Chapter 8
00:55:20.317 : en:Chapter 9
01:03:09.953 : en:Chapter 10
01:10:44.657 : en:Chapter 11
01:18:25.868 : en:Chapter 12
01:22:36.201 : en:Chapter 13
01:27:58.732 : en:Chapter 14
01:31:53.425 : en:Chapter 15
01:39:13.322 : en:Chapter 16
01:47:00.748 : en:Chapter 17
01:54:50.133 : en:Chapter 18
01:59:15.231 : en:Chapter 19
02:03:24.397 : en:Chapter 20
Скріншоти
Джерело: &
Подяка п. BILko за Аудіо №2
Особиста оцінка: 10 - без зайвих вагань рекомендую всім!





Золотий реліз (завантажене не впливає на рейтинг)
 Трекер:    Зареєстрований   

Завантажити / скачати фільм українською



відео для новачків



 Зареєстрований:   2020-03-08 03:39
 Розмір:   24.18 GB 
 Оцінка фільму:   9.8/10 (Голосів: 6)
   
[email protected] 
VIP


З нами з: 25.03.17
Востаннє: 27.09.20
Повідомлень: 552

2020-03-08 11:45  
Ще 6-та так?
MakRA 
VIP


З нами з: 11.11.18
Востаннє: 30.09.20
Повідомлень: 1120

2020-03-08 14:01  
[email protected] написано:
Ще 6-та так?

Так)

Додано через 42 секунди:

Думаю, сьогодні викладу і шосту частину

mdm44 
Новенький


З нами з: 18.03.12
Востаннє: 28.09.20
Повідомлень: 7

2020-03-09 19:50  
MakRA
з укр дубляжем? О_о

[email protected] 
VIP


З нами з: 25.03.17
Востаннє: 27.09.20
Повідомлень: 552

2020-03-10 20:45  
MakRA
Давайте шосту пліс)

MakRA 
VIP


З нами з: 11.11.18
Востаннє: 30.09.20
Повідомлень: 1120

2020-03-10 21:30  
[email protected]
Залишилося оформити. Буду ввечері вдома, ближче до опівночі викладу Happy

Ваш часовий пояс: GMT + 2 Години

Нова тема   Відповісти