Заборонений прийом [Розширена версія] / Sucker Punch [Extented Cut] (2011) Remux 1080p Ukr/Eng | Sub Eng

Нові коментарі

Нова тема   Відповісти
Автор Повідомлення
Anonymous 







2020-03-08 02:10  
Заборонений прийом [Розширена версія] / Sucker Punch [Extented Cut] (2011) Remux 1080p Ukr/Eng | Sub Eng

Заборонений прийом [Розширена версія] / Sucker Punch [Extented Cut] (2011) Remux 1080p Ukr/Eng | Sub Eng


Жанр: екшн, фентезі
Країна: США, Канада



Кінокомпанія: Warner Bros., Legendary Entertainment, Cruel & Unusual Films
Режисер: Зак Снайдер / Zack Snyder
Актори: Емілі Браунінґ / Emily Browning — Барбариска, Еббі Корніш / Abbie Cornish — Зефірка, Джена Малоун / Jena Malone — Ракета, Джемі Чунґ / Jamie Chung — Клепка, Ванесса Гадженс / Vanessa Hudgens — Блонда, Оскар Айзек / Oscar Isaac — Блу/директор лікарні, Карла Ґуджіно / Carla Gugino — Мадам Горські, Скотт Ґленн / Scott Glenn — Мудрець/Генерал/Водій автобусу, та інші.

Сюжет:
Дія відбувається у 1950 році. Молоду дівчину за наполяганням її лиходійського вітчима відправляють у лікарню для божевільних, де через п'ять днів їй мають зробити лоботомію. Щоб захиститися від болю, вона вигадує казковий світ, де і починає планувати свою втечу. Для цього їй потрібно знайти п'ять предметів.

Мандруючи уявними світами, головна героїня потрапляє у стімпанковий світ часів Першої світової, де б'ється із німецькими солдатами-зомбі; у фентезійний світ, де виступає проти орків, та на далеку планету, де їй опонують роботи-вбивці.


Тривалість: 02:07:30
Якість: Remux 1080p
Відео:
кодек:
розмір кадру: 1920 х 1080
бітрейт: 23.9 мб/с

Аудіо # 1:
мова: українська
переклад: професійний дубльований
кодек: 5.1
бітрейт: 448 кб/с

Аудіо # 2:
мова: англійська
переклад: оригінал
кодек: 5.1
бітрейт: 448 кб/с

Аудіо # 3:
мова: англійська
переклад: оригінал
кодек: -HD Master 5.1
бітрейт: 4105 кб/с

Субтитри # 1 (Forced):
мова: українська (форсовані, на моменти без перекладу)
тип: програмні (м'які)
формат: *.srt

Субтитри # 2-3 (Full, SDH):
мова: англійська
тип: програмні (м'які)
формат: *.srt
Info
Код:

General
Complete name                            : Sucker Punch [Extented Cut] (2011) Remux 1080p [ukr, eng] [ViDeO_Hurtom].
Format                                   :
Format version                           : Version 4
File size                                : 25.7 GiB
Duration                                 : 2 h 7 min
Overall bit rate mode                    : Variable
Overall bit rate                         : 28.9 Mb/s
Movie name                               : Заборонений прийом [Розширена версія] / Sucker Punch [Extented Cut]
Encoded date                             : UTC 2020-03-07 23:32:09
Writing application                      : v30.1.0 ('Forever And More') 64-bit
Writing library                          : libebml v1.3.6 + v1.4.9
Cover                                    : Yes
Attachments                              : cover.jpg

Video
ID                                       : 1
Format                                   : AVC
Format/Info                              : Advanced Video Codec
Format profile                           : [email protected]
Format settings                          : CABAC / 2 Ref Frames
Format settings, CABAC                   : Yes
Format settings, RefFrames               : 2 frames
Format settings, GOP                     : M=1, N=10
Codec ID                                 : V_MPEG4/ISO/AVC
Duration                                 : 2 h 7 min
Bit rate mode                            : Variable
Bit rate                                 : 23.9 Mb/s
Width                                    : 1 920 pixels
Height                                   : 1 080 pixels
Display aspect ratio                     : 16:9
Frame rate mode                          : Constant
Frame rate                               : 23.976 (24000/1001) FPS
Color space                              : YUV
Chroma subsampling                       : 4:2:0
Bit depth                                : 8 bits
Scan type                                : Progressive
Bits/(Pixel*Frame)                       : 0.480
Stream size                              : 21.3 GiB (83%)
Language                                 : English
Default                                  : Yes
Forced                                   : No

Audio #1
ID                                       : 2
Format                                   : AC-3
Format/Info                              : Audio Coding 3
Commercial name                          : Dolby Digital
Codec ID                                 : A_AC3
Duration                                 : 2 h 7 min
Bit rate mode                            : Constant
Bit rate                                 : 448 kb/s
Channel(s)                               : 6 channels
Channel layout                           : L R C LFE Ls Rs
Sampling rate                            : 48.0 kHz
Frame rate                               : 31.250 FPS (1536 SPF)
Bit depth                                : 16 bits
Compression mode                         : Lossy
Stream size                              : 409 MiB (2%)
Title                                    : 5.1 @ ~448 kbps
Language                                 : Ukrainian
Service kind                             : Complete Main
Default                                  : Yes
Forced                                   : No

Audio #2
ID                                       : 3
Format                                   : AC-3
Format/Info                              : Audio Coding 3
Commercial name                          : Dolby Digital
Codec ID                                 : A_AC3
Duration                                 : 2 h 7 min
Bit rate mode                            : Constant
Bit rate                                 : 448 kb/s
Channel(s)                               : 6 channels
Channel layout                           : L R C LFE Ls Rs
Sampling rate                            : 48.0 kHz
Frame rate                               : 31.250 FPS (1536 SPF)
Bit depth                                : 16 bits
Compression mode                         : Lossy
Stream size                              : 409 MiB (2%)
Title                                    : 5.1 @ ~448 kbps
Language                                 : English
Service kind                             : Complete Main
Default                                  : No
Forced                                   : No

Audio #3
ID                                       : 4
Format                                   : XLL
Format/Info                              : Digital Theater Systems
Commercial name                          : -HD Master Audio
Codec ID                                 : A_DTS
Duration                                 : 2 h 7 min
Bit rate mode                            : Variable
Bit rate                                 : 4 105 kb/s
Channel(s)                               : 6 channels
Channel layout                           : C L R Ls Rs LFE
Sampling rate                            : 48.0 kHz
Frame rate                               : 93.750 FPS (512 SPF)
Bit depth                                : 24 bits
Compression mode                         : Lossless
Stream size                              : 3.66 GiB (14%)
Title                                    : -HD MA 5.1 @ ~4105 kbps
Language                                 : English
Default                                  : No
Forced                                   : No

Text #1
ID                                       : 5
Format                                   : UTF-8
Codec ID                                 : S_TEXT/UTF8
Codec ID/Info                            : UTF-8 Plain Text
Duration                                 : 1 h 44 min
Bit rate                                 : 11 b/s
Count of elements                        : 209
Stream size                              : 8.89 KiB (0%)
Title                                    : Forced
Language                                 : Ukrainian
Default                                  : Yes
Forced                                   : No

Text #2
ID                                       : 6
Format                                   : UTF-8
Codec ID                                 : S_TEXT/UTF8
Codec ID/Info                            : UTF-8 Plain Text
Duration                                 : 2 h 7 min
Bit rate                                 : 35 b/s
Count of elements                        : 1089
Stream size                              : 33.4 KiB (0%)
Title                                    : Full
Language                                 : English
Default                                  : No
Forced                                   : No

Text #3
ID                                       : 7
Format                                   : UTF-8
Codec ID                                 : S_TEXT/UTF8
Codec ID/Info                            : UTF-8 Plain Text
Duration                                 : 2 h 7 min
Bit rate                                 : 38 b/s
Count of elements                        : 1223
Stream size                              : 36.2 KiB (0%)
Title                                    : SDH
Language                                 : English
Default                                  : No
Forced                                   : No

Menu
00:00:00.000                             : en:00:00:00.000
00:05:59.985                             : en:00:05:59.985
00:12:25.703                             : en:00:12:25.703
00:24:59.456                             : en:00:24:59.456
00:36:15.590                             : en:00:36:15.590
00:42:35.720                             : en:00:42:35.720
00:57:42.501                             : en:00:57:42.501
01:01:29.936                             : en:01:01:29.936
01:21:13.118                             : en:01:21:13.118
01:37:03.526                             : en:01:37:03.526
01:53:19.543                             : en:01:53:19.543
02:01:45.757                             : en:02:01:45.757
Скріншоти






Джерело:
Особиста оцінка: 8 - мені сподобалося


Золотий реліз (завантажене не впливає на рейтинг)
 Трекер:    Зареєстрований   

Завантажити / скачати фільм українською



відео для новачків



 Зареєстрований:   2020-03-08 02:10
 Розмір:   25.73 GB 
 Оцінка фільму:   9.7/10 (Голосів: 7)
 ЗАЛИШАЙТЕСЬ ЯКОМОГА ДОВШЕ НА РОЗДАЧІ! ЗАВАНТАЖИВ САМ - ДАЙ ЗАВАНТАЖИТИ ІНШИМ!
   
Інші релізи
   Заборонений прийом [Розширена версія] / Sucker Punch [Extented Cut] (2011) 1080p Ukr/Eng | Sub Eng antik_2008  3 / 0   16.06 GB   2020-03-08 00:26 
   Заборонений прийом [Розширена версія] / Sucker Punch [Extented Cut] (2011) AVC Ukr/Eng | Sub Eng Sando7  0 / 0   2.25 GB   2019-04-19 08:23 
   Заборонений прийом [Театральна версія] / Sucker Punch [Theatrical Cut] (2011) AVC Ukr/Eng | Sub Eng Sando7  0 / 0   2.28 GB   2019-04-19 08:21 
   Заборонений прийом [Розширена версія] / Sucker Punch [Extented Cut] (2011) 720p Ukr/Eng | Sub Ukr/Eng patriot2305  6 / 0   4.37 GB   2013-07-19 11:23 
   Заборонений прийом [Розширена версія] / Sucker Punch [Extented Cut] (2011) patriot2305  5 / 0   2.18 GB   2013-07-18 09:51 
   Заборонений прийом / Sucker Punch (2011) 720p Ukr/Eng | Sub Eng patriot2305  0 / 0   4.04 GB   2013-07-16 18:49 
   Заборонений прийом / Sucker Punch (2011) Ukr/Eng patriot2305  2 / 0   2.18 GB   2013-07-15 13:12 
   Заборонений прийом / Sucker Punch (2011) patriot2305  0 / 0   1.45 GB   2013-07-13 20:04 
   Заборонений прийом [Розширена версія] / Sucker Punch [Extented Cut] (2011) Blu-Ray 1080p Multi | Sub Multi Drool  0 / 0   31.51 GB   2013-05-10 01:57 
   Заборонений прийом / Sucker Punch (2011) 1080p Ukr/Eng | Sub Eng/Fre Chelios  2 / 0   7.95 GB   2011-07-28 09:36 
Anonymous 







2020-03-11 16:10  
8 /10
Ваш часовий пояс: GMT + 2 Години

Нова тема   Відповісти