Заборонений прийом [Розширена версія] / Sucker Punch [Extented Cut] (2011) 1080p Ukr/Eng | Sub Eng

Нові коментарі

Нова тема   Відповісти
Автор Повідомлення
Anonymous 







2020-03-08 00:26  
Заборонений прийом [Розширена версія] / Sucker Punch [Extented Cut] (2011) 1080p Ukr/Eng | Sub Eng

Заборонений прийом [Розширена версія] / Sucker Punch [Extented Cut] (2011) 1080p Ukr/Eng | Sub Eng


Жанр: екшн, фентезі
Країна: США, Канада



Кінокомпанія: Warner Bros., Legendary Entertainment, Cruel & Unusual Films
Режисер: Зак Снайдер / Zack Snyder
Актори: Емілі Браунінґ / Emily Browning — Барбариска, Еббі Корніш / Abbie Cornish — Зефірка, Джена Малоун / Jena Malone — Ракета, Джемі Чунґ / Jamie Chung — Клепка, Ванесса Гадженс / Vanessa Hudgens — Блонда, Оскар Айзек / Oscar Isaac — Блу/директор лікарні, Карла Ґуджіно / Carla Gugino — Мадам Горські, Скотт Ґленн / Scott Glenn — Мудрець/Генерал/Водій автобусу, та інші.

Сюжет:
Дія відбувається у 1950 році. Молоду дівчину за наполяганням її лиходійського вітчима відправляють у лікарню для божевільних, де через п'ять днів їй мають зробити лоботомію. Щоб захиститися від болю, вона вигадує казковий світ, де і починає планувати свою втечу. Для цього їй потрібно знайти п'ять предметів.

Мандруючи уявними світами, головна героїня потрапляє у стімпанковий світ часів Першої світової, де б'ється із німецькими солдатами-зомбі; у фентезійний світ, де виступає проти орків, та на далеку планету, де їй опонують роботи-вбивці.


Тривалість: 02:07:30
Якість: 1080p
Відео:
кодек:
розмір кадру: 1920 х 800
бітрейт: 16100 кб/с

Аудіо # 1:
мова: українська
переклад: професійний дубльований
кодек: 5.1
бітрейт: 448 кб/с

Аудіо # 2:
мова: англійська
переклад: оригінал
кодек: 5.1
бітрейт: 1536 кб/с

Субтитри # 1 (Forced):
мова: українська (форсовані, на моменти без перекладу)
тип: програмні (м'які)
формат: *.srt

Субтитри # 2-3 (Full, SDH):
мова: англійська
тип: програмні (м'які)
формат: *.srt
Info
Код:

General
Complete name                            : Sucker Punch [Extented Cut] (2011) 1080p [ukr, eng] [ViDeO_Hurtom].
Format                                   :
Format version                           : Version 4
File size                                : 16.1 GiB
Duration                                 : 2 h 7 min
Overall bit rate                         : 18.0 Mb/s
Movie name                               : Заборонений прийом [Розширена версія] / Sucker Punch [Extented Cut]
Encoded date                             : UTC 2020-03-07 21:12:14
Writing application                      : v30.1.0 ('Forever And More') 64-bit
Writing library                          : libebml v1.3.6 + v1.4.9
Cover                                    : Yes
Attachments                              : cover.jpg

Video
ID                                       : 1
Format                                   : AVC
Format/Info                              : Advanced Video Codec
Format profile                           : [email protected]
Format settings                          : CABAC / 5 Ref Frames
Format settings, CABAC                   : Yes
Format settings, RefFrames               : 5 frames
Codec ID                                 : V_MPEG4/ISO/AVC
Duration                                 : 2 h 7 min
Bit rate                                 : 16.1 Mb/s
Width                                    : 1 920 pixels
Height                                   : 800 pixels
Display aspect ratio                     : 2.40:1
Frame rate mode                          : Constant
Frame rate                               : 23.976 (24000/1001) FPS
Color space                              : YUV
Chroma subsampling                       : 4:2:0
Bit depth                                : 8 bits
Scan type                                : Progressive
Bits/(Pixel*Frame)                       : 0.438
Stream size                              : 14.3 GiB (89%)
Title                                    : Release for HDCLUB
Writing library                          : core 115 r2008 4c552d8
Encoding settings                        : cabac=1 / ref=5 / deblock=1:-3:-3 / analyse=0x3:0x113 / me=esa / subme=10 / psy=1 / psy_rd=1.00:0.02 / mixed_ref=1 / me_range=48 / chroma_me=1 / trellis=2 / 8x8dct=1 / cqm=0 / deadzone=21,11 / fast_pskip=0 / chroma_qp_offset=-3 / threads=6 / sliced_threads=0 / nr=0 / decimate=0 / interlaced=0 / bluray_compat=0 / constrained_intra=0 / bframes=8 / b_pyramid=2 / b_adapt=2 / b_bias=0 / direct=3 / weightb=1 / open_gop=0 / weightp=2 / keyint=250 / keyint_min=23 / scenecut=40 / intra_refresh=0 / rc_lookahead=150 / rc=2pass / mbtree=1 / bitrate=16123 / ratetol=1.0 / qcomp=0.70 / qpmin=0 / qpmax=69 / qpstep=4 / cplxblur=20.0 / qblur=0.5 / vbv_maxrate=38000 / vbv_bufsize=30000 / nal_hrd=none / ip_ratio=1.40 / aq=1:0.80
Language                                 : English
Default                                  : Yes
Forced                                   : No

Audio #1
ID                                       : 2
Format                                   : AC-3
Format/Info                              : Audio Coding 3
Commercial name                          : Dolby Digital
Codec ID                                 : A_AC3
Duration                                 : 2 h 7 min
Bit rate mode                            : Constant
Bit rate                                 : 448 kb/s
Channel(s)                               : 6 channels
Channel layout                           : L R C LFE Ls Rs
Sampling rate                            : 48.0 kHz
Frame rate                               : 31.250 FPS (1536 SPF)
Bit depth                                : 16 bits
Compression mode                         : Lossy
Stream size                              : 409 MiB (2%)
Title                                    : Ukrainian - 5.1 448 kbps
Language                                 : Ukrainian
Service kind                             : Complete Main
Default                                  : Yes
Forced                                   : No

Audio #2
ID                                       : 3
Format                                   :
Format/Info                              : Digital Theater Systems
Codec ID                                 : A_DTS
Duration                                 : 2 h 7 min
Bit rate mode                            : Constant
Bit rate                                 : 1 509 kb/s
Channel(s)                               : 6 channels
Channel layout                           : C L R Ls Rs LFE
Sampling rate                            : 48.0 kHz
Frame rate                               : 93.750 FPS (512 SPF)
Bit depth                                : 24 bits
Compression mode                         : Lossy
Delay relative to video                  : 11 ms
Stream size                              : 1.34 GiB (8%)
Title                                    : Original - 5.1 1536 kbps
Language                                 : English
Default                                  : No
Forced                                   : No

Text #1
ID                                       : 4
Format                                   : UTF-8
Codec ID                                 : S_TEXT/UTF8
Codec ID/Info                            : UTF-8 Plain Text
Duration                                 : 1 h 44 min
Bit rate                                 : 11 b/s
Count of elements                        : 209
Stream size                              : 8.89 KiB (0%)
Title                                    : Forced
Language                                 : Ukrainian
Default                                  : Yes
Forced                                   : No

Text #2
ID                                       : 5
Format                                   : UTF-8
Codec ID                                 : S_TEXT/UTF8
Codec ID/Info                            : UTF-8 Plain Text
Duration                                 : 2 h 7 min
Bit rate                                 : 35 b/s
Count of elements                        : 1089
Stream size                              : 33.4 KiB (0%)
Title                                    : FuLL
Language                                 : English
Default                                  : No
Forced                                   : No

Text #3
ID                                       : 6
Format                                   : UTF-8
Codec ID                                 : S_TEXT/UTF8
Codec ID/Info                            : UTF-8 Plain Text
Duration                                 : 2 h 7 min
Bit rate                                 : 38 b/s
Count of elements                        : 1223
Stream size                              : 36.2 KiB (0%)
Title                                    : SDH
Language                                 : English
Default                                  : No
Forced                                   : No

Menu
00:00:00.000                             : en:Chapter 01
00:05:59.985                             : en:Chapter 02
00:12:25.703                             : en:Chapter 03
00:24:59.456                             : en:Chapter 04
00:36:15.590                             : en:Chapter 05
00:42:35.720                             : en:Chapter 06
00:57:42.501                             : en:Chapter 07
01:01:29.936                             : en:Chapter 08
01:21:13.118                             : en:Chapter 09
01:37:03.526                             : en:Chapter 10
01:53:19.543                             : en:Chapter 11
02:01:45.757                             : en:Chapter 12
Скріншоти








Джерело:
Особиста оцінка: 8 - мені сподобалося


 Трекер:    Зареєстрований   

Завантажити / скачати фільм українською



відео для новачків



 Зареєстрований:   2020-03-08 00:26
 Розмір:   16.06 GB 
 Оцінка фільму:   9.7/10 (Голосів: 7)
 ЗАЛИШАЙТЕСЬ ЯКОМОГА ДОВШЕ НА РОЗДАЧІ! ЗАВАНТАЖИВ САМ - ДАЙ ЗАВАНТАЖИТИ ІНШИМ!
   
Інші релізи
   Заборонений прийом [Розширена версія] / Sucker Punch [Extented Cut] (2011) Remux 1080p Ukr/Eng | Sub Eng antik_2008  1 / 0   25.73 GB   2020-03-08 02:10 
   Заборонений прийом [Розширена версія] / Sucker Punch [Extented Cut] (2011) AVC Ukr/Eng | Sub Eng Sando7  0 / 0   2.25 GB   2019-04-19 08:23 
   Заборонений прийом [Театральна версія] / Sucker Punch [Theatrical Cut] (2011) AVC Ukr/Eng | Sub Eng Sando7  0 / 0   2.28 GB   2019-04-19 08:21 
   Заборонений прийом [Розширена версія] / Sucker Punch [Extented Cut] (2011) 720p Ukr/Eng | Sub Ukr/Eng patriot2305  6 / 0   4.37 GB   2013-07-19 11:23 
   Заборонений прийом [Розширена версія] / Sucker Punch [Extented Cut] (2011) patriot2305  5 / 0   2.18 GB   2013-07-18 09:51 
   Заборонений прийом / Sucker Punch (2011) 720p Ukr/Eng | Sub Eng patriot2305  0 / 0   4.04 GB   2013-07-16 18:49 
   Заборонений прийом / Sucker Punch (2011) Ukr/Eng patriot2305  2 / 0   2.18 GB   2013-07-15 13:12 
   Заборонений прийом / Sucker Punch (2011) patriot2305  0 / 0   1.45 GB   2013-07-13 20:04 
   Заборонений прийом [Розширена версія] / Sucker Punch [Extented Cut] (2011) Blu-Ray 1080p Multi | Sub Multi Drool  0 / 0   31.51 GB   2013-05-10 01:57 
   Заборонений прийом / Sucker Punch (2011) 1080p Ukr/Eng | Sub Eng/Fre Chelios  2 / 0   7.95 GB   2011-07-28 09:36 
roalad 
VIP


З нами з: 22.06.12
Востаннє: 27.11.20
Повідомлень: 372

2020-03-08 14:56  
Привіт форумчани, таке питаннячко виникає у мене, ця розширена версія має професійний дубльований переклад з блюрея він повний? тобто є перекладені розширені 17хв?
MakRA 
VIP


З нами з: 10.11.18
Востаннє: 28.11.20
Повідомлень: 1164

2020-03-08 15:10  
roalad написано:
таке питаннячко виникає у мене, ця розширена версія має професійний дубльований переклад з блюрея він повний? тобто є перекладені розширені 17хв?

Anonymous написано:

Субтитри # 1 (Forced):
мова: українська (форсовані, на моменти без перекладу)

roalad 
VIP


З нами з: 22.06.12
Востаннє: 27.11.20
Повідомлень: 372

2020-03-11 15:29  
MakRA Розібрався дякую!
Anonymous 







2020-04-20 19:31  
8/10
Ваш часовий пояс: GMT + 2 Години

Нова тема   Відповісти