День матері (Нестерпні леді) / Mother's Day (2016) AVC 2xUkr/Eng | sub Eng

Нові коментарі

Нова тема   Відповісти
Автор Повідомлення
Arsenfpu 
Відео Гуртом - фільмокрай
Відео Гуртом - фільмокрай


З нами з: 30.04.09
Востаннє: 04.07.20
Повідомлень: 7031

2020-03-08 01:22  
День матері (Нестерпні леді) / Mother's Day (2016) AVC 2xUkr/Eng | sub Eng

День матері (Нестерпні леді) / Mother's Day (2016) AVC 2xUkr/Eng | sub Eng


Жанр: комедія
Країна: США



Кінокомпанія: Open Road Films (II), Rice Films, Gulfstream Pictures
Режисер: Ґаррі Маршалл
Актори: женніфер Еністон, Джулія Робертс, Кейт Гадсон, Тімоті Оліфант, Джейсон Судейкіс, Сара Чок, Брендон Спінк, Шей Мітчелл, Брітт Робертсон

Сюжет:
Іскрометна комедія від режисера «Красуні» зібрала разом улюблених голлівудських актрис. Фільм складається з кількох новел, які розкажуть про життя мам напередодні Дня матері.


Тривалість: 01:58:50
Якість:
Відео:
кодек:
розмір кадру: 1 008 х 546
бітрейт: 2 675 кб/с

Аудіо # 1:
мова: українська
переклад: багатоголосий закадровий
кодек: 2.0
бітрейт: 192 кб/с

Аудіо # 2:
мова: українська
переклад: багатоголосий закадровий
кодек: 2.0
бітрейт: 192 кб/с

примітка: в обох доріжках, в тих самих місцях, є кілька неозвучених проміжків загальною тривалістю ~ 40 c

Аудіо # 3:
мова: англійська
переклад: оригінал
кодек: 2.0
бітрейт: 192 кб/с

Субтитри:
мова: англійська
тип: програмні (м'які)
формат: *.srt
Скріншоти














Про файл
General
Unique ID : 226150708013748981036322504529657283182 (0xAA230AC3D771C969D92F65EA11DD426E)
Complete name : C:\Mother's Day (2016) [2xUkr,Eng] AVC [Hurtom].
Format :
Format version : Version 4 / Version 2
File size : 2.70 GiB
Duration : 1 h 58 min
Overall bit rate : 3 254 kb/s
Movie name : День матері / Нестерпні леді / Mother's Day (2016)
Encoded date : UTC 2020-03-07 21:50:38
Writing application : v21.0.0 ('Tardigrades Will Inherit The Earth') 32-bit
Writing library : libebml v1.3.5 + v1.4.8
Cover : Yes
Attachments : cover.jpg

Video
ID : 1
Format : AVC
Format/Info : Advanced Video Codec
Format profile : [email protected]
Format settings, CABAC : Yes
Format settings, ReFrames : 13 frames
Codec ID : V_MPEG4/ISO/AVC
Duration : 1 h 58 min
Bit rate : 2 675 kb/s
Width : 1 008 pixels
Height : 546 pixels
Display aspect ratio : 1.85:1
Frame rate mode : Constant
Frame rate : 23.976 (24000/1001) FPS
Color space : YUV
Chroma subsampling : 4:2:0
Bit depth : 8 bits
Scan type : Progressive
Bits/(Pixel*Frame) : 0.203
Stream size : 2.22 GiB (82%)
Writing library : core 148 r2705+54 9f484c1 t_mod_Custom [[email protected] X86_64]
Encoding settings : cabac=1 / ref=13 / deblock=1:-3:-2 / analyse=0x3:0x133 / me=umh / subme=10 / psy=1 / fade_compensate=0.00 / psy_rd=1.00:0.00 / mixed_ref=1 / me_range=32 / chroma_me=1 / trellis=2 / 8x8dct=1 / cqm=0 / deadzone=21,11 / fast_pskip=0 / chroma_qp_offset=-2 / threads=12 / lookahead_threads=3 / sliced_threads=0 / nr=0 / decimate=0 / interlaced=0 / bluray_compat=0 / constrained_intra=0 / fgo=0 / bframes=14 / b_pyramid=2 / b_adapt=2 / b_bias=0 / direct=3 / weightb=1 / open_gop=0 / weightp=2 / keyint=240 / keyint_min=23 / scenecut=40 / intra_refresh=0 / rc_lookahead=60 / rc=2pass / mbtree=0 / bitrate=2675 / ratetol=1.0 / qcomp=0.65 / qpmin=0:0:0 / qpmax=69:69:69 / qpstep=4 / cplxblur=20.0 / qblur=0.5 / vbv_maxrate=50000 / vbv_bufsize=62500 / nal_hrd=none / filler=0 / ip_ratio=1.40 / pb_ratio=1.30 / aq=3:0.85 / aq-sensitivity=10.00 / aq-factor=1.00:1.00:1.00 / aq2=0 / aq3=0
Default : Yes
Forced : No

Audio #1
ID : 2
Format : AC-3
Format/Info : Audio Coding 3
Mode extension : CM (complete main)
Format settings, Endianness : Big
Codec ID : A_AC3
Duration : 1 h 58 min
Bit rate mode : Constant
Bit rate : 192 kb/s
Channel(s) : 2 channels
Channel positions : Front: L R
Sampling rate : 48.0 kHz
Frame rate : 31.250 FPS (1536 spf)
Compression mode : Lossy
Stream size : 163 MiB (6%)
Title : Інтер
Language : Ukrainian
Default : Yes
Forced : Yes

Audio #2
ID : 3
Format : AC-3
Format/Info : Audio Coding 3
Mode extension : CM (complete main)
Format settings, Endianness : Big
Codec ID : A_AC3
Duration : 1 h 58 min
Bit rate mode : Constant
Bit rate : 192 kb/s
Channel(s) : 2 channels
Channel positions : Front: L R
Sampling rate : 48.0 kHz
Frame rate : 31.250 FPS (1536 spf)
Compression mode : Lossy
Stream size : 163 MiB (6%)
Language : Ukrainian
Default : No
Forced : No

Audio #3
ID : 4
Format : AC-3
Format/Info : Audio Coding 3
Mode extension : CM (complete main)
Format settings, Endianness : Big
Codec ID : A_AC3
Duration : 1 h 58 min
Bit rate mode : Constant
Bit rate : 192 kb/s
Channel(s) : 2 channels
Channel positions : Front: L R
Sampling rate : 48.0 kHz
Frame rate : 31.250 FPS (1536 spf)
Compression mode : Lossy
Stream size : 163 MiB (6%)
Language : English
Default : No
Forced : No

Text #1
ID : 5
Format : UTF-8
Codec ID : S_TEXT/UTF8
Codec ID/Info : UTF-8 Plain Text
Duration : 1 h 57 min
Bit rate : 85 b/s
Count of elements : 2467
Stream size : 74.1 KiB (0%)
Language : English
Default : No
Forced : No

Text #2
ID : 6
Format : UTF-8
Codec ID : S_TEXT/UTF8
Codec ID/Info : UTF-8 Plain Text
Duration : 1 h 58 min
Bit rate : 91 b/s
Count of elements : 2621
Stream size : 79.1 KiB (0%)
Title : SDH
Language : English
Default : No
Forced : No

Menu
00:00:00.000 : en:Chapter 1
00:05:50.891 : en:Chapter 2
00:08:50.111 : en:Chapter 3
00:15:32.389 : en:Chapter 4
00:22:11.413 : en:Chapter 5
00:28:43.721 : en:Chapter 6
00:35:48.646 : en:Chapter 7
00:43:12.297 : en:Chapter 8
00:48:07.717 : en:Chapter 9
00:55:35.248 : en:Chapter 10
00:59:36.155 : en:Chapter 11
01:05:33.179 : en:Chapter 12
01:10:23.636 : en:Chapter 13
01:18:21.697 : en:Chapter 14
01:23:46.979 : en:Chapter 15
01:29:07.591 : en:Chapter 16
01:34:27.828 : en:Chapter 17
01:38:48.421 : en:Chapter 18
01:44:50.324 : en:Chapter 19
01:49:32.064 : en:Chapter 20
Джерело:
За другу доріжку дякую пану Covenant
Особиста оцінка: не дивився


 Трекер:    Зареєстрований   

Завантажити / скачати фільм українською



відео для новачків



 Зареєстрований:   2020-03-08 01:22
 Розмір:   2.7 GB 
 Оцінка фільму:   7.9/10 (Голосів: 11)
   
Інші релізи
   Нестерпні леді / Mother's Day (2016) 1080p Загора  4 / 0   4.12 GB   2016-06-26 17:20 
   Нестерпні леді / Mother's Day (2016) Covenant  4 / 0   1.45 GB   2016-06-26 14:32 
Nickolassssssss 
VIP


З нами з: 31.05.14
Востаннє: 04.07.20
Повідомлень: 298

2020-03-16 15:21  
Непоганий фільм на один раз. Хоча актори зробили свою роботу чудово.
1153780 
Новенький


З нами з: 19.08.16
Востаннє: 03.07.20
Повідомлень: 3

2020-04-11 19:38  
Класне кіно про прості людяні цінності. Акторам респект - багато та професійно!
Ваш часовий пояс: GMT + 2 Години

Нова тема   Відповісти