Дивовижні історії (Сезон 1, Серії 1-4) / Amazing Stories (Season 1, Episodes 1-4) (2020) 720p Eng | Sub Ukr/Eng

Нові коментарі

Нова тема   Відповісти
Автор Повідомлення
Anonymous 







2020-03-07 20:49  
Дивовижні історії (Сезон 1, Серії 1-4) / Amazing Stories (Season 1, Episodes 1-4) (2020) 720p Eng | Sub Ukr/Eng

Дивовижні історії (Сезон 1, Серії 1-4) / Amazing Stories (Season 1, Episodes 1-4) (2020) 720p Eng | Sub Ukr/Eng
Альтернативні постери:

Дивовижні історії (Сезон 1, Серії 1-4) / Amazing Stories (Season 1, Episodes 1-4) (2020) 720p Eng | Sub Ukr/Eng





Жанр: фентезі, пригодницький, наукова фантастика
Країна: США



Кінокомпанія: Amblin Television, Universal Television, Apple TV+
Режисери: Майкл Діннер / Michael Dinner, Сюзанна Фогель / Susanna Fogel, Кріс Лонг / Chris Long, Марк Майлод / Mark Mylod, Сільвен Вайт / Sylvain White
Актори: Саша Александр, Керрі Біше, Едвард Бернс, Майкл Чандлер, Роберт Форстер, Джош Голловей, Дункан Джойнер, Саша Лейн, Джейкоб Латімор, Ділан О’Брайєн та інші

Сюжет:
Приготуйтеся! Вас чекає унікальне шоу, яке приготували для вас сервіс Apple TV + та видатний Стівен Спілберг. Дивовижні історії зразка 2020 року, це перезавантаження культового серіалу антології, яка вийшла 35 років тому. Найкращі сценаристи, режисери та актори приєдналися до Спілберга, щоб перенести аудиторію в неймовірний і фантастичний світ. Кожен з епізодів антології присвячений одній темі і знятий в певному жанрі. Єдине, що об'єднує всі серії, це те, що вони присвячені надприродним і незрозумілим явищам.
Офіційний трейлер:


Рейтинг у США: TV-PG - дітям до 12 років перегляд не бажаний
Вікова категорія, зазначена на Apple TV+: 18+

Тривалість: 1 серія x 48÷53 хв. (всього серій: 4 з 5)
Перелік серій, дата виходу:

S01E01 Підвал / The Cellar, 6 березня 2020
S01E02 Спека / The Heat, 13 березня 2020
S01E03 Диномен та Вольт / Dynoman and the Volt, 20 березня 2020
S01E04 Ознаки життя / Signs of Life, 27 березня 2020
S01E05 The Rift, 3 квітня 2020
Якість: 720p
Відео:
кодек:
розмір кадру: 1280х720 (1,4) / 1356x678 (2-3)
бітрейт: 2839 ÷ 3925 кб/с

Аудіо:
мова: англійська
переклад: оригінал
кодек: 5.1
бітрейт: 448 кб/с

Субтитри # 1:
мова: українська
тип: програмні (м'які)
формат: *.srt
переклад: Наталія Наконечна

Субтитри # 2-3:
мова: англійська (повні, SDH)
тип: програмні (м'які)
формат: *.srt
Info
Код:

Complete name               : S01E01.Amazing Stories (2020) [Eng sub.Ukr,Eng] 720p [Hurtom].
Format                      :
Format version              : Version 4
File size                   : 1.22 GiB
Duration                    : 52 min 34 s
Overall bit rate            : 3 327 kb/s
Movie name                  : S01E01 [The Cellar] Дивовижні історії / Amazing Stories (2020) [Eng sub.Ukr,Eng] 720p [Hurtom]
Encoded date                : UTC 2020-03-07 17:41:11
Writing application         : v43.0.0 ('The Quartermaster') 64-bit
Writing library             : libebml v1.3.10 + v1.5.2
Cover                       : Yes
Attachments                 : Cover.jpg

Video
ID                          : 1
Format                      : AVC
Format/Info                 : Advanced Video Codec
Format profile              : [email protected]
Format settings             : CABAC / 5 Ref Frames
Format settings, CABAC      : Yes
Format settings, Reference  : 5 frames
Codec ID                    : V_MPEG4/ISO/AVC
Duration                    : 52 min 34 s
Bit rate                    : 2 876 kb/s
Width                       : 1 280 pixels
Height                      : 720 pixels
Display aspect ratio        : 16:9
Frame rate mode             : Constant
Frame rate                  : 23.976 (24000/1001) FPS
Color space                 : YUV
Chroma subsampling          : 4:2:0
Bit depth                   : 8 bits
Scan type                   : Progressive
Bits/(Pixel*Frame)          : 0.130
Stream size                 : 1.06 GiB (86%)
Title                       : S01E01 Дивовижні історії / Amazing Stories (2020).720p.ATVP..DDP5.1.-CasStudio
Language                    : English
Default                     : Yes
Forced                      : No
Color range                 : Limited
Color primaries             : BT.709
Transfer characteristics    : BT.709
Matrix coefficients         : BT.709

Audio
ID                          : 2
Format                      : AC-3
Format/Info                 : Audio Coding 3
Commercial name             : Dolby Digital
Codec ID                    : A_AC3
Duration                    : 52 min 34 s
Bit rate mode               : Constant
Bit rate                    : 448 kb/s
Channel(s)                  : 6 channels
Channel layout              : L R C LFE Ls Rs
Sampling rate               : 48.0 kHz
Frame rate                  : 31.250 FPS (1536 SPF)
Compression mode            : Lossy
Stream size                 : 168 MiB (13%)
Language                    : English
Service kind                : Complete Main
Default                     : Yes
Forced                      : No

Text #1
ID                          : 3
Format                      : UTF-8
Codec ID                    : S_TEXT/UTF8
Codec ID/Info               : UTF-8 Plain Text
Duration                    : 51 min 23 s
Bit rate                    : 77 b/s
Count of elements           : 585
Stream size                 : 29.3 KiB (0%)
Title                       : Ukr Full [Apple TV+]
Language                    : Ukrainian
Default                     : Yes
Forced                      : Yes

Text #2
ID                          : 4
Format                      : UTF-8
Codec ID                    : S_TEXT/UTF8
Codec ID/Info               : UTF-8 Plain Text
Duration                    : 48 min 14 s
Bit rate                    : 56 b/s
Count of elements           : 586
Stream size                 : 20.1 KiB (0%)
Title                       : Eng Full
Language                    : English
Default                     : No
Forced                      : No

Text #3
ID                          : 5
Format                      : UTF-8
Codec ID                    : S_TEXT/UTF8
Codec ID/Info               : UTF-8 Plain Text
Duration                    : 51 min 4 s
Bit rate                    : 60 b/s
Count of elements           : 705
Stream size                 : 22.7 KiB (0%)
Title                       : Eng SDH
Language                    : English
Default                     : No
Forced                      : No



Джерело: &
Подяка п.DanyZemlyanoy за українізацію постера.


Бронзовий реліз (на рейтинг впливає 75% завантаженого)
 Трекер:    Зареєстрований   

Завантажити / скачати серіал українською



відео для новачків



 Зареєстрований:   2020-03-27 10:54
 Розмір:   5.52 GB 
 Оцінка серіалу:   9.9/10 (Голосів: 9)
 ЗАЛИШАЙТЕСЬ ЯКОМОГА ДОВШЕ НА РОЗДАЧІ! ЗАВАНТАЖИВ САМ - ДАЙ ЗАВАНТАЖИТИ ІНШИМ!
   
Anonymous 







2020-03-13 15:54  
+ 2а серія
Anonymous 







2020-03-20 18:50  
+3я серія
Tatoko 
Новенький


З нами з: 12.10.16
Востаннє: 03.04.20
Повідомлень: 16

2020-03-20 20:23  
Щось подібне до серіалу Герої.
DanyZemlyanoy 
Відео Гуртом - дизайнер
Відео Гуртом - дизайнер


З нами з: 02.07.16
Востаннє: 03.04.20
Повідомлень: 51

2020-03-23 17:56  
Український постер:
Дивовижні історії / Amazing Stories (2020)

Anonymous 







2020-03-27 10:55  
+ 4а серія
Ваш часовий пояс: GMT + 2 Години

Нова тема   Відповісти