Форсаж 4 / Fast & Furious 4 (2009) Remux 1080p 2xUkr/Eng | Sub Eng

Нові коментарі

Нова тема   Відповісти
Автор Повідомлення
MakRA 
VIP


З нами з: 11.11.18
Востаннє: 24.09.20
Повідомлень: 1120

2020-03-07 02:42  
Форсаж 4 / Fast & Furious 4 (2009) Remux 1080p 2xUkr/Eng | Sub Eng

Форсаж 4 / Fast & Furious 4 (2009) Remux 1080p 2xUkr/Eng | Sub Eng

«Нова модель. Оригінальні запчастини»

Українські постери:


Альтернативні обкладинки та постери:




Жанр: екшн, трилер
Країна: США



Кінокомпанія: Universal Pictures, Original Film
Режисер: Джастін Лін [Justin Lin]
Актори: Він Дізель [Vin Diesel], Пол Вокер [Paul Walker], Джордана Брюстер [Jordana Brewster], Мішель Родріґез [Michelle Rodriguez], Джон Ортіс [John Ortiz], Лас Алонсо [Laz Alonso], Галь Гадот [Gal Gadot], Джек Конлі [Jack Conley], Ші Уігхем [Shea Whigham], Ліза Лапіра [Liza Lapira]

Сюжет:
Коли крива доріжка змушує Дома Торетто повернутися до Лос-Анджелеса, ворожнеча з агентом Брайаном О’Коннером спалахує з новою силою. Але в парочки виявляється загальний противник і Домініку з Брайаном доводиться укласти перемир'я в надії отримати над ним перемогу. Грабуючи конвої, риючи підкопи і пересікаючи кордони, вони приходять до ідеальної форми помсти - міцно втиснутої педалі газу.


Тривалість: 01:46:52
Якість: Remux 1080p
Відео:
кодек: VC-1
розмір кадру: 1920 х 1080
бітрейт: 24,2 Mб/с

Аудіо # 1:
мова: українська
переклад: професійний дубльований | студія LeDoyen
кодек: 2.0 [стерео]
бітрейт: 192 кб/с
Про озвучення:
Ролі дублювали: Домінік Торрето – Борис Георгієвський, Браян О'Коннер – Дмитро Гаврилов, Пеннінґ – Олександр Ігнатуша, Фенікс – Микола Боклан, Двійник Браґи – Віталій Дорошенко; Юрій Коваленко, Ігор Волков та інші.

Фільм дубльовано студією LeDoyen на замовлення B&H Film Distribution.
Аудіо # 2:
мова: українська
переклад: багатоголосий закадровий
кодек: 2.0
бітрейт: 192 кб/с
Про озвучення:
Ролі озвучили: Анатолій Зіновенко, Юрій Кудрявець, Катерина Буцька і Андрій Вільколек.
Аудіо # 3:
мова: англійська
переклад: оригінал
кодек: -HD MA 5.1
бітрейт: 4173 кб/с

Аудіо # 4:
мова: англійська
переклад: оригінал
кодек: 5.1
бітрейт: 448 кб/с

Аудіо # 5:
мова: англійська
переклад: коментарі режисера Джастіна Ліна
кодек: 2.0
бітрейт: 192 кб/с

Субтитри # 1: (Forced) | на іспанську мову
мова: українська
тип: програмні (м'які)
формат: *.srt

Субтитри # 2: (Full)
мова: англійська
тип: програмні (м'які)
формат: *.srt

Субтитри # 3: (SDH)
мова: англійська
тип: пререндерні
формат: *.pgs

Субтитри # 4: (Full SDH-Colored)
мова: англійська
тип: програмні (м'які)
формат: *.srt

Збережено оригінальні іменовані розділи, як на Blu-ray.
Info
General
Unique ID : 94675074276565213765185026995586616563 (0x4739C18CBB189B62C179A8A2DFC04CF3)
Complete name : I:\Fast & Furious Movie Collection\Fast & Furious 4 (2009) Remux 1080p 2xUkrEng Sub Eng [Hurtom].
Format :
Format version : Version 4
File size : 22.0 GiB
Duration : 1 h 46 min
Overall bit rate mode : Variable
Overall bit rate : 29.5 Mb/s
Movie name : Форсаж 4 / Fast & Furious 4 (2009) Remux 1080p 2xUkr/Eng | Sub Eng [Hurtom]
Encoded date : UTC 2020-03-04 11:47:52
Writing application : v25.0.0 ('Prog Noir') 64-bit
Writing library : libebml v1.3.6 + v1.4.9
Cover : Yes
Attachments : Cover.jpg

Video
ID : 1
Format : VC-1
Format profile : [email protected]
Codec ID : V_MS/VFW/FOURCC / WVC1
Codec ID/Hint : Microsoft
Duration : 1 h 46 min
Bit rate : 24.2 Mb/s
Width : 1 920 pixels
Height : 1 080 pixels
Display aspect ratio : 16:9
Frame rate mode : Constant
Frame rate : 23.976 (24000/1001) FPS
Color space : YUV
Chroma subsampling : 4:2:0
Bit depth : 8 bits
Scan type : Progressive
Compression mode : Lossy
Bits/(Pixel*Frame) : 0.488
Stream size : 18.1 GiB (82%)
Title : Fast & Furious 4 (2009) Remux 1080p 2xUkr/Eng | Sub Eng [Hurtom]
Language : Ukrainian
Default : Yes
Forced : Yes

Audio #1
ID : 2
Format : AC-3
Format/Info : Audio Coding 3
Commercial name : Dolby Digital
Codec ID : A_AC3
Duration : 1 h 46 min
Bit rate mode : Constant
Bit rate : 192 kb/s
Channel(s) : 2 channels
Channel layout : L R
Sampling rate : 48.0 kHz
Frame rate : 31.250 FPS (1536 SPF)
Compression mode : Lossy
Stream size : 147 MiB (1%)
Title : DUB 2.0 | LeDoyen
Language : Ukrainian
Service kind : Complete Main
Default : Yes
Forced : Yes

Audio #2
ID : 3
Format : AC-3
Format/Info : Audio Coding 3
Commercial name : Dolby Digital
Codec ID : A_AC3
Duration : 1 h 46 min
Bit rate mode : Constant
Bit rate : 192 kb/s
Channel(s) : 2 channels
Channel layout : L R
Sampling rate : 48.0 kHz
Frame rate : 31.250 FPS (1536 SPF)
Compression mode : Lossy
Stream size : 147 MiB (1%)
Title : MVO [ICTV] 2.0
Language : Ukrainian
Service kind : Complete Main
Default : No
Forced : No

Audio #3
ID : 4
Format : XLL
Format/Info : Digital Theater Systems
Commercial name : -HD Master Audio
Codec ID : A_DTS
Duration : 1 h 46 min
Bit rate mode : Variable
Bit rate : 4 173 kb/s
Channel(s) : 6 channels
Channel layout : C L R Ls Rs LFE
Sampling rate : 48.0 kHz
Frame rate : 93.750 FPS (512 SPF)
Bit depth : 24 bits
Compression mode : Lossless
Delay relative to video : 42 ms
Stream size : 3.11 GiB (14%)
Title : Original -HD MA 5.1
Language : English
Default : No
Forced : No

Audio #4
ID : 5
Format : AC-3
Format/Info : Audio Coding 3
Commercial name : Dolby Digital
Codec ID : A_AC3
Duration : 1 h 46 min
Bit rate mode : Constant
Bit rate : 448 kb/s
Channel(s) : 6 channels
Channel layout : L R C LFE Ls Rs
Sampling rate : 48.0 kHz
Frame rate : 31.250 FPS (1536 SPF)
Compression mode : Lossy
Stream size : 342 MiB (2%)
Title : Original 5.1
Language : English
Service kind : Complete Main
Default : No
Forced : No

Audio #5
ID : 6
Format : AC-3
Format/Info : Audio Coding 3
Commercial name : Dolby Digital
Codec ID : A_AC3
Duration : 1 h 46 min
Bit rate mode : Constant
Bit rate : 192 kb/s
Channel(s) : 2 channels
Channel layout : L R
Sampling rate : 48.0 kHz
Frame rate : 31.250 FPS (1536 SPF)
Compression mode : Lossy
Delay relative to video : 42 ms
Stream size : 147 MiB (1%)
Title : Original 2.0 | Commentary by director Justin Lin
Language : English
Service kind : Complete Main
Default : No
Forced : No

Text #1
ID : 7
Format : UTF-8
Codec ID : S_TEXT/UTF8
Codec ID/Info : UTF-8 Plain Text
Duration : 1 h 39 min
Bit rate : 1 b/s
Count of elements : 24
Stream size : 1.28 KiB (0%)
Title : Ukr (Forced)
Language : Ukrainian
Default : Yes
Forced : Yes

Text #2
ID : 8
Format : UTF-8
Codec ID : S_TEXT/UTF8
Codec ID/Info : UTF-8 Plain Text
Duration : 1 h 37 min
Bit rate : 34 b/s
Count of elements : 787
Stream size : 24.8 KiB (0%)
Title : Eng (Full) SRT
Language : English
Default : No
Forced : No

Text #3
ID : 9
Format : PGS
Muxing mode : zlib
Codec ID : S_HDMV/PGS
Codec ID/Info : Picture based subtitle format used on BDs/HD-DVDs
Duration : 1 h 38 min
Bit rate : 27.0 kb/s
Count of elements : 1978
Stream size : 19.0 MiB (0%)
Title : Eng (SDH) PGS
Language : English
Default : No
Forced : No

Text #4
ID : 10
Format : UTF-8
Codec ID : S_TEXT/UTF8
Codec ID/Info : UTF-8 Plain Text
Duration : 1 h 38 min
Bit rate : 49 b/s
Count of elements : 994
Stream size : 35.6 KiB (0%)
Title : Eng (Full SDH-Colored) PGS
Language : English
Default : No
Forced : No

Menu
00:00:00.000 : en:Game Time
00:07:26.529 : en:Ride Or Die
00:11:46.956 : en:Foot Pursuit
00:16:46.756 : en:Coming Home
00:24:24.088 : en:Back On The Scene
00:29:05.452 : en:Tuned-Up
00:34:05.293 : en:A Real Driver
00:37:30.790 : en:Muscle Beats Import
00:46:07.348 : en:Boss Os Bosses
00:53:37.381 : en:Along For The Ride
00:58:15.158 : en:High-Performance
01:04:49.219 : en:Spotted Together
01:07:29.879 : en:Food, Family, Friendship
01:12:01.859 : en:Just Business
01:14:46.524 : en:Primary Target
01:20:36.165 : en:Juisdiction Ends
01:25:03.265 : en:Ain't Forgiven
01:29:09.386 : en:Run For The Border
01:35:54.999 : en:Steet Pardon
01:39:24.959 : en:End Titles
Скріншоти
Джерело: &
Подяка п. Hanway за створення Аудіо №1 і п. slavik_v_z за запис Аудіо №2.
Особиста оцінка: 10 - без зайвих вагань рекомендую всім!





Золотий реліз (завантажене не впливає на рейтинг)
 Трекер:    Зареєстрований   

Завантажити / скачати фільм українською



відео для новачків



 Зареєстрований:   2020-03-07 02:42
 Розмір:   21.96 GB 
 Оцінка фільму:   9.8/10 (Голосів: 5)
   
Інші релізи
   Форсаж 4 / Fast & Furious 4 (2009) [Open Matte] 1080p 2xUkr/Eng | Sub Eng -Star-Lord-  0 / 1   10.56 GB   2019-09-03 23:07 
   Форсаж 4 / Fast & Furious 4 (2009) 1080p-mini Zeus62  2 / 0   4.34 GB   2011-04-04 20:06 
MakRA 
VIP


З нами з: 11.11.18
Востаннє: 24.09.20
Повідомлень: 1120

2020-03-07 11:56  
Наскільки, я розумію, п'ята частина є тут https://toloka.to/t27212
Тому її, швидше за все, не робитиму.

igor911 
Модератор відео


З нами з: 18.01.08
Востаннє: 24.09.20
Повідомлень: 15004

2020-03-07 12:40  
MakRA написано:
п'ята частина є тут https://toloka.to/t27212

там ввімкнено Header stripping (не відтворюватиметься на багатьох "залізних" програвачах) і відсутня друга українська доріжка

MakRA 
VIP


З нами з: 11.11.18
Востаннє: 24.09.20
Повідомлень: 1120

2020-03-07 12:49  
igor911
Ок. Значить п"ята також буде!

Ваш часовий пояс: GMT + 2 Години

Нова тема   Відповісти