Жіночий Рай (Сезон 1) / Il paradiso delle signore (Stagione 1) (2015) 720p Ukr/Ita

Нові коментарі

Нова тема   Відповісти
Останній раз роздавалося NemoInFire (2020-11-18)
Автор Повідомлення
krovosisi 
Новенький


З нами з: 09.12.12
Востаннє: 29.11.20
Повідомлень: 12

2020-03-06 16:33  
Жіночий Рай (Сезон 1) / Il paradiso delle signore (Stagione 1) (2015) 720p Ukr/Ita

Жіночий Рай (Сезон 1) / Il paradiso delle signore (Stagione 1) (2015) 720p Ukr/Ita


Жанр: драма
Країна: Італія



Кінокомпанія / телеканал: Rai Fiction, Aurora TV / RAI
Режисер: Моніка Вулло (Monica Vullo)
Актори/ролі озвучують: Джузеппе Дзено (Giuseppe Zeno), Джусі Бушемі (Giusy Buscemi), Алессандро Терсіні (Alessandro Tersigni), Крістіане Філанджері (Christiane Filangieri), Лорена Каччаторе (Lorena Cacciatore), Джулія Веккіо (Giulia Vecchio), Сільвія Мацціері (Silvia Mazzieri), Аліче Торріані (Alice Torriani), Андреа Пеннаккі (Andrea Pennacchi), Ріккардо Леонеллі (Riccardo Leonelli), Валерія Фабріці (Valeria Fabrizi)

Сюжет:
Італійська адаптація однойменного роману Еміля Золя. Захоплюючий сюжет псевдоісторичної драми про один крок від ненависті до кохання, про підступність конкурентів, закулісні ігри поміж колег та про дух авантюризму, що характерний для того часу.

Події розгортаються в Мілані, у 1956 році. Молода дівчина Тереза Йоріо приїздить із Сицилії пожити у родичів, допоки вдома не стихне скандал у зв'язку з її відмовою дуже вигідно вийти заміж, але за чоловіка, який почав їй зраджувати ще до весілля. Проте виявляється, що дядько, до якого вона приїхала пожити, на межі банкрутства, і, щоб підтримати сім'ю, Тереза влаштовується у великий універмаг - нове явище того часу. Це не просто великий магазин, це - рай для будь якої жінки! Рай, яким вправно, випереджаючи свій час, керує П'єтро Морі.


Тривалість: 1 серія: 50:00 (цілком серій: 20)
Перелік серій
01. L'estate d'inverno
02. Non arrendersi mai
03. Responsabilità
04. La settimana del sud
05. Il Bello per tutti
06. Lucciole e sogni
07. Liberazione
08. A mali estremi
09. Il Bacio
10. Come una famiglia
11. I sogni son desideri
12. La festa della mamma
13. Uomini, mezz'uomini, ominicchi e quaquaraquà
14. La prova del fuoco'
15. La testa e il cuore
16. Puoi farcela
17. Il momento di decidere
18. Ostacoli
19. Andrea Doria
20. Tutta la verità
Якість:
Відео:
кодек:
розмір кадру: 1280 х 720
бітрейт: 2400 кб/с

Аудіо # 1:
мова: українська
переклад: двоголосий закадровий
кодек: 2.0
бітрейт: 128-192 кб/с

Аудіо # 2:
мова: італійська
переклад: оригінал
кодек: 2.0
бітрейт: 128 кб/с

Джерело озвучення:
Info
General
Unique ID : 172553560764950637412444416283612590833 (0x81D09B624E6DF36E8696781B8C30B2F1)
Complete name : D:\Releases\Il paradiso delle signore (Stagione 1) (2016) 720p Ukr, Ita\Il paradiso delle signore S01E10 [Ukr, Ita] 720p.
Format :
Format version : Version 4
File size : 1.03 GiB
Duration : 54 min 26 s
Overall bit rate : 2 700 kb/s
Encoded date : UTC 2020-02-24 17:16:23
Writing application : v43.0.0 ('The Quartermaster') 64-bit
Writing library : libebml v1.3.10 + v1.5.2

Video
ID : 1
Format : AVC
Format/Info : Advanced Video Codec
Format profile : [email protected]
Format settings : CABAC / 4 Ref Frames
Format settings, CABAC : Yes
Format settings, Reference : 4 frames
Codec ID : V_MPEG4/ISO/AVC
Duration : 54 min 26 s
Bit rate : 2 400 kb/s
Width : 1 280 pixels
Height : 720 pixels
Display aspect ratio : 16:9
Frame rate mode : Constant
Frame rate : 25.000 FPS
Color space : YUV
Chroma subsampling : 4:2:0
Bit depth : 8 bits
Scan type : Progressive
Bits/(Pixel*Frame) : 0.104
Stream size : 926 MiB (88%)
Writing library : core 146 r2 121396c
Encoding settings : cabac=1 / ref=2 / deblock=1:0:0 / analyse=0x1:0x111 / me=umh / subme=9 / psy=1 / psy_rd=1.00:0.00 / mixed_ref=1 / me_range=16 / chroma_me=1 / trellis=1 / 8x8dct=0 / cqm=0 / deadzone=21,11 / fast_pskip=1 / chroma_qp_offset=-2 / threads=72 / lookahead_threads=5 / sliced_threads=0 / nr=0 / decimate=1 / interlaced=0 / bluray_compat=0 / constrained_intra=0 / bframes=6 / b_pyramid=2 / b_adapt=1 / b_bias=0 / direct=1 / weightb=1 / open_gop=0 / weightp=2 / keyint=50 / keyint_min=25 / scenecut=40 / intra_refresh=0 / rc_lookahead=40 / rc=abr / mbtree=1 / bitrate=2400 / ratetol=1.0 / qcomp=0.60 / qpmin=10 / qpmax=51 / qpstep=4 / ip_ratio=1.41 / aq=1:1.00
Default : Yes
Forced : No

Audio #1
ID : 2
Format : LC
Format/Info : Advanced Audio Codec Low Complexity
Codec ID : A_AAC-2
Duration : 54 min 25 s
Bit rate : 192 kb/s
Channel(s) : 2 channels
Channel layout : L R
Sampling rate : 44.1 kHz
Frame rate : 43.066 FPS (1024 SPF)
Compression mode : Lossy
Delay relative to video : -80 ms
Stream size : 73.8 MiB (7%)
Language : Ukrainian
Default : Yes
Forced : No

Audio #2
ID : 3
Format : LC
Format/Info : Advanced Audio Codec Low Complexity
Codec ID : A_AAC-2
Duration : 54 min 26 s
Bit rate : 128 kb/s
Channel(s) : 2 channels
Channel layout : L R
Sampling rate : 44.1 kHz
Frame rate : 43.066 FPS (1024 SPF)
Compression mode : Lossy
Delay relative to video : -80 ms
Stream size : 49.8 MiB (5%)
Language : Italian
Default : No
Forced : No
Скріншоти
Джерело:
Особиста оцінка: 9 - давно не бачив настільки якісне кіно


Бронзовий реліз (на рейтинг впливає 75% завантаженого)
 Трекер:    Зареєстрований   

Завантажити / скачати серіал українською



відео для новачків



 Зареєстрований:   2020-03-06 16:33
 Розмір:   19.95 GB 
 Оцінка серіалу:   10/10 (Голосів: 3)
 by krovosisi for toloka
   
bot 
робот


З нами з: 30.09.07
Востаннє: 26.05.05
Повідомлень: 26411

2020-03-06 16:46  
Тему перенесено з Телесеріали до форуму Серіали в HD


igor911

igor911 
Модератор відео


З нами з: 18.01.08
Востаннє: 30.11.20
Повідомлень: 15083

2020-03-06 16:50  
Потрібно додати звіт Info. Скріншоти до HD релізів мають бути у форматі png, треба замінити.

Додано через 1 хвилину 6 секунд:

krovosisi написано:
Джерело: рутрекер
не бачу там нічого з цього релізу, виправіть п.Джерело теж.
sergiyko.5 
Забанено
Забанено


З нами з: 25.02.16
Востаннє: 29.10.20
Повідомлень: 3650

2020-03-17 12:29  
sstass
вкажи, хто записав звук і хто зберіг цей серіал для українців.

sergiyko.5 
Забанено
Забанено


З нами з: 25.02.16
Востаннє: 29.10.20
Повідомлень: 3650

2020-03-23 11:58  
Поки в цьому релізі не буде вказано хто писав звук, слідуючих сезонів я робити не буду.
krovosisi 
Новенький


З нами з: 09.12.12
Востаннє: 29.11.20
Повідомлень: 12

2020-03-23 13:32  
sergiyko.5 написано:

sstass
вкажи, хто записав звук і хто зберіг цей серіал для українців.


не знаю, хто такий sstass, звук писав і зводив я
sergiyko.5 написано:
Поки в цьому релізі не буде вказано хто писав звук, слідуючих сезонів я робити не буду.

можливо це й на краще, в продовженні набагато гірше виконана озвучка і наявна купа пропущених місць, в яких протягом двох хвилин наявна лише мова оригіналу без українського перекладу. як на мене, уваги воно не варте

Ваш часовий пояс: GMT + 2 Години

Нова тема   Відповісти