Ніч у Роксбері / A Night At The Roxbury (1998) 1080p Ukr/Eng | Sub Eng

Нові коментарі

Нова тема   Відповісти
Автор Повідомлення
Anonymous 







2020-03-06 17:27  
Ніч у Роксбері / A Night At The Roxbury (1998) 1080p Ukr/Eng | Sub Eng

Ніч у Роксбері / A Night At The Roxbury (1998) 1080p Ukr/Eng | Sub Eng


Жанр: комедія
Країна: США



Кінокомпанія: Paramount Pictures, SNL Studios
Режисер: Джон Фортенберрі
Актори: Вілл Ферелл, Кріс Кеттен, Ден Хедайя, Лоні Андерсон, Моллі Шеннон, Майкл Кларк Дункан, Річард Греко, Єва Мендес

Сюжет:
Вони носять елегантні костюми й золоті ланцюги. У них модні зачіски і стильні бакенбарди. Їх місце існування - нічні клуби. Стимул їх життя - красиві жінки. Їх найзаповітніша мрія - потрапити в престижний і недоступний клуб "Роксбері" ...


Тривалість: 01:21:57
Якість: 1080p
Відео:
кодек:
розмір кадру: 1920х1080
бітрейт: 11.5 Mб/с

Аудіо # 1:
мова: українська
переклад: багатоголосий закадровий
кодек: 2.0
бітрейт: 192 кб/с

Аудіо # 2:
мова: англійська
переклад: оригінал
кодек: 5.1
бітрейт: 448 кб/с

Субтитри:
мова: англійська
тип: програмні (м'які)
формат: *.srt
Info
General
Unique ID : 224787479863894057563205682739175156992 (0xA91C7E6D908342B48F6363BA5582ED00)
Complete name : H:\Toloka\2020\A Night At The Roxbury (1998) 1080p.
Format :
Format version : Version 4
File size : 6.95 GiB
Duration : 1 h 21 min
Overall bit rate : 12.1 Mb/s
Encoded date : UTC 2020-03-06 14:22:52
Writing application : v6.1.0 ('Old Devil') built on Mar 4 2013 09:10:42
Writing library : libebml v1.3.0 + v1.4.0

Video
ID : 1
Format : AVC
Format/Info : Advanced Video Codec
Format profile : [email protected]
Format settings : CABAC / 4 Ref Frames
Format settings, CABAC : Yes
Format settings, RefFrames : 4 frames
Codec ID : V_MPEG4/ISO/AVC
Duration : 1 h 21 min
Bit rate : 11.5 Mb/s
Width : 1 920 pixels
Height : 1 080 pixels
Display aspect ratio : 16:9
Frame rate mode : Constant
Frame rate : 23.976 (24000/1001) FPS
Color space : YUV
Chroma subsampling : 4:2:0
Bit depth : 8 bits
Scan type : Progressive
Bits/(Pixel*Frame) : 0.231
Stream size : 6.44 GiB (93%)
Title : A.Night.At.The.Roxbury.1998.1080p.BluRay..DD5.1-FGT
Writing library : core 148 r2748 97eaef2
Encoding settings : cabac=1 / ref=4 / deblock=1:-2:-2 / analyse=0x3:0x113 / me=umh / subme=9 / psy=1 / psy_rd=1.00:0.15 / mixed_ref=1 / me_range=16 / chroma_me=1 / trellis=2 / 8x8dct=1 / cqm=0 / deadzone=21,11 / fast_pskip=1 / chroma_qp_offset=-3 / threads=24 / lookahead_threads=3 / sliced_threads=0 / nr=0 / decimate=1 / interlaced=0 / bluray_compat=0 / constrained_intra=0 / bframes=3 / b_pyramid=2 / b_adapt=1 / b_bias=0 / direct=3 / weightb=1 / open_gop=0 / weightp=2 / keyint=250 / keyint_min=25 / scenecut=40 / intra_refresh=0 / rc_lookahead=50 / rc=2pass / mbtree=1 / bitrate=11500 / ratetol=1.0 / qcomp=0.60 / qpmin=0 / qpmax=69 / qpstep=4 / cplxblur=20.0 / qblur=0.5 / vbv_maxrate=31250 / vbv_bufsize=31250 / nal_hrd=none / filler=0 / ip_ratio=1.40 / aq=1:1.00
Language : English
Default : Yes
Forced : No
Statistics Tags Issue : v43.0.0 ('The Quartermaster') 64-bit 2020-03-04 13:07:09 / v6.1.0 ('Old Devil') built on Mar 4 2013 09:10:42 2020-03-06 14:22:52
FromStats_BitRate : 11493657
FromStats_Duration : 01:21:56.579000000
FromStats_FrameCount : 117880
FromStats_StreamSize : 7063684636

Audio #1
ID : 2
Format : AC-3
Format/Info : Audio Coding 3
Commercial name : Dolby Digital
Codec ID : A_AC3
Duration : 1 h 21 min
Bit rate mode : Constant
Bit rate : 192 kb/s
Channel(s) : 2 channels
Channel layout : L R
Sampling rate : 48.0 kHz
Frame rate : 31.250 FPS (1536 SPF)
Bit depth : 16 bits
Compression mode : Lossy
Stream size : 113 MiB (2%)
Title : UKR (K1)
Language : Ukrainian
Service kind : Complete Main
Default : Yes
Forced : Yes

Audio #2
ID : 3
Format : AC-3
Format/Info : Audio Coding 3
Commercial name : Dolby Digital
Codec ID : A_AC3
Duration : 1 h 21 min
Bit rate mode : Constant
Bit rate : 448 kb/s
Channel(s) : 6 channels
Channel layout : L R C LFE Ls Rs
Sampling rate : 48.0 kHz
Frame rate : 31.250 FPS (1536 SPF)
Bit depth : 16 bits
Compression mode : Lossy
Stream size : 263 MiB (4%)
Title : ENG
Language : English
Service kind : Complete Main
Default : No
Forced : No
Statistics Tags Issue : v43.0.0 ('The Quartermaster') 64-bit 2020-03-04 13:07:09 / v6.1.0 ('Old Devil') built on Mar 4 2013 09:10:42 2020-03-06 14:22:52
FromStats_BitRate : 448000
FromStats_Duration : 01:21:56.544000000
FromStats_FrameCount : 153642
FromStats_StreamSize : 275326464

Text
ID : 4
Format : UTF-8
Codec ID : S_TEXT/UTF8
Codec ID/Info : UTF-8 Plain Text
Title : ENG
Language : English
Default : Yes
Forced : No
Statistics Tags Issue : v43.0.0 ('The Quartermaster') 64-bit 2020-03-04 13:07:09 / v6.1.0 ('Old Devil') built on Mar 4 2013 09:10:42 2020-03-06 14:22:52
FromStats_BitRate : 57
FromStats_Duration : 01:16:38.306000000
FromStats_FrameCount : 691
FromStats_StreamSize : 32934

Menu
00:00:00.000 : :Chapter 01
00:07:44.032 : :Chapter 02
00:09:40.332 : :Chapter 03
00:15:33.932 : :Chapter 04
00:16:38.998 : :Chapter 05
00:21:56.898 : :Chapter 06
00:26:07.998 : :Chapter 07
00:33:25.164 : :Chapter 08
00:35:41.763 : :Chapter 09
00:41:22.696 : :Chapter 10
00:44:31.196 : :Chapter 11
00:47:21.495 : :Chapter 12
00:50:58.995 : :Chapter 13
00:54:56.695 : :Chapter 14
01:00:57.995 : :Chapter 15
01:03:31.628 : :Chapter 16
01:10:18.360 : :Chapter 17
01:13:19.493 : :Chapter 18
01:17:13.326 : :Chapter 19
Скріншоти







За доріжку подяка п. bodia87
Особиста подяка пану denixx за надану матеріальну допомогу на підтримку цього і майбутніх релізів.
Джерело:


Срібний реліз (на рейтинг впливає 50% завантаженого)
 Трекер:    Зареєстрований   

Завантажити / скачати фільм українською



відео для новачків



 Зареєстрований:   2020-03-06 17:27
 Розмір:   6.95 GB 
 Оцінка фільму:   9.7/10 (Голосів: 7)
   
Інші релізи
11994455 
Попереджень: 2
Попереджень: 2 


З нами з: 07.04.14
Востаннє: 20.09.20
Повідомлень: 618

2020-07-23 20:45  
Шо цікаво дівчатам чомусь цей фільм неподобається...
Ваш часовий пояс: GMT + 2 Години

Нова тема   Відповісти