48 годин / 48 Hrs. (1982) AVC 2xUkr/Eng | Sub Eng

Нові коментарі

Нова тема   Відповісти
Автор Повідомлення
21jumpstreet 
VIP


З нами з: 03.07.12
Востаннє: 06.07.20
Повідомлень: 1092

2020-03-05 11:34  
48 годин / 48 Hrs. (1982) AVC 2xUkr/Eng | Sub Eng

48 годин / 48 Hrs. (1982) AVC 2xUkr/Eng | Sub Eng


Жанр: бойовик, кримінальний, комедія
Країна: США



Кінокомпанія: Paramount Pictures
Режисер: Волтер Гілл
Актори: Нік Нолті, Едді Мерфі, Аннет О Тул, Джеймс Ремар та інші.

Сюжет:
Герой Ніка Нолті - суворий детектив, який переслідує двох злочинців, які вбили поліцейського. Але він не може впоратися із завданням без допомоги тямущого, але легковажного напарника, який відбуває термін за крадіжку півмільйона доларів. Вимушені партнери, м'яко кажучи, насилу знаходять спільну мову, та й цілі у них різні: перший жадає помститися покидькам, а другий спить і бачить, як отримати свої грошики й на додачу одну дуже апетитну кралечку.


Тривалість: 01:36:36
Якість:
Відео:
кодек:
розмір кадру: 1024 х 576
бітрейт: 3400 кб/с

Аудіо # 1:
мова: українська
переклад: багатоголосий закадровий | 1+1
кодек: 2.0
бітрейт: 192 кб/с
Інформація про озвучення:
Аудіо # 2:
мова: українська
переклад: багатоголосий закадровий | ICTV, Інтер
кодек: 2.0
бітрейт: 192 кб/с
Інформація про озвучення:
Фільм озвучено студією Так Треба Продакшн на замовлення телеканалу Інтер.

Ролі озвучили: Нік Нолті - Олег Стальчук, Юрій Гребельник, Еді Мерфі - Анатолій Зіновенко і один чи два жіночих голоси.
Аудіо # 3:
мова: англійська
переклад: оригінал
кодек: 5.1
бітрейт: 448 кб/с

Субтитри:
мова: англійська
тип: програмні (м'які)
формат: *.srt
Скріншоти


Info:
C:\Users\Admin\Downloads\48 Hrs. (1982) [2xUkr,Eng] AVC [Hurtom].
General
Unique ID : 21809800074377605038064665973067119215 (0x10686A2A11DEBC6291559F2543B07A6F)
Complete name : C:\Users\Admin\Downloads\48 Hrs. (1982) [2xUkr,Eng] AVC [Hurtom].
Format :
Format version : Version 4 / Version 2
File size : 2.86 GiB
Duration : 1 h 36 min
Overall bit rate : 4 234 kb/s
Movie name : = MediaClub = rip by Painter
Encoded date : UTC 2020-03-05 10:44:31
Writing application : v22.0.0 ('At The End Of The World') 32-bit
Writing library : libebml v1.3.5 + v1.4.8
Video #1
ID : 1
Format : AVC
Format/Info : Advanced Video Codec
Format profile : [email protected]
Format settings, CABAC : Yes
Format settings, ReFrames : 9 frames
Codec ID : V_MPEG4/ISO/AVC
Duration : 1 h 36 min
Bit rate : 3 400 kb/s
Width : 1 024 pixels
Height : 576 pixels
Display aspect ratio : 16:9
Frame rate mode : Constant
Frame rate : 23.976 FPS
Color space : YUV
Chroma subsampling : 4:2:0
Bit depth : 8 bits
Scan type : Progressive
Bits/(Pixel*Frame) : 0.240
Stream size : 2.29 GiB (80%)
Writing library : core 130 r2273 b3065e6
Encoding settings : cabac=1 / ref=9 / deblock=1:-2:-1 / analyse=0x3:0x133 / me=umh / subme=11 / psy=1 / psy_rd=1.00:0.15 / mixed_ref=1 / me_range=32 / chroma_me=1 / trellis=2 / 8x8dct=1 / cqm=0 / deadzone=21,11 / fast_pskip=0 / chroma_qp_offset=-3 / threads=6 / lookahead_threads=1 / sliced_threads=0 / nr=0 / decimate=0 / interlaced=0 / bluray_compat=0 / constrained_intra=0 / bframes=8 / b_pyramid=2 / b_adapt=2 / b_bias=0 / direct=3 / weightb=1 / open_gop=0 / weightp=2 / keyint=240 / keyint_min=23 / scenecut=40 / intra_refresh=0 / rc=2pass / mbtree=0 / bitrate=3400 / ratetol=1.0 / qcomp=0.60 / qpmin=0 / qpmax=69 / qpstep=4 / cplxblur=20.0 / qblur=0.5 / ip_ratio=1.40 / pb_ratio=1.30 / aq=1:1.00
Language : English
Default : Yes
Forced : No
Audio #2
ID : 2
Format : AC-3
Format/Info : Audio Coding 3
Mode extension : CM (complete main)
Format settings, Endianness : Big
Codec ID : A_AC3
Duration : 1 h 36 min
Bit rate mode : Constant
Bit rate : 192 kb/s
Channel(s) : 2 channels
Channel positions : Front: L R
Sampling rate : 48.0 kHz
Frame rate : 31.250 FPS (1536 spf)
Compression mode : Lossy
Stream size : 133 MiB (5%)
Default : Yes
Forced : No
Audio #3
ID : 3
Format : AC-3
Format/Info : Audio Coding 3
Mode extension : CM (complete main)
Format settings, Endianness : Big
Codec ID : A_AC3
Duration : 1 h 36 min
Bit rate mode : Constant
Bit rate : 192 kb/s
Channel(s) : 2 channels
Channel positions : Front: L R
Sampling rate : 48.0 kHz
Frame rate : 31.250 FPS (1536 spf)
Compression mode : Lossy
Stream size : 133 MiB (5%)
Language : Ukrainian
Default : No
Forced : No
Audio #4
ID : 4
Format : AC-3
Format/Info : Audio Coding 3
Mode extension : CM (complete main)
Format settings, Endianness : Big
Codec ID : A_AC3
Duration : 1 h 36 min
Bit rate mode : Constant
Bit rate : 448 kb/s
Channel(s) : 6 channels
Channel positions : Front: L C R, Side: L R, LFE
Sampling rate : 48.0 kHz
Frame rate : 31.250 FPS (1536 spf)
Compression mode : Lossy
Stream size : 310 MiB (11%)
Language : English
Default : No
Forced : No
Text #5
ID : 5
Format : UTF-8
Codec ID : S_TEXT/UTF8
Codec ID/Info : UTF-8 Plain Text
Duration : 1 h 29 min
Bit rate : 67 b/s
Count of elements : 1204
Stream size : 44.1 KiB (0%)
Language : English
Default : No
Forced : No
Величезні подяки:
запис з тб - xslim, Bohdan237
синхронізація - kryk-v.ya., Arsenfpu
Виготовлення локалізованого постера:
DanyZemlyanoy

Джерело: &
Особиста оцінка: 10 - без зайвих вагань рекомендую всім!

РЕЛІЗ ДИВИТИСЯ ТІЛЬКИ В ОЗВУЧЕННІ 1+1


Срібний реліз (на рейтинг впливає 50% завантаженого)
 Трекер:    Зареєстрований   

Завантажити / скачати фільм українською



відео для новачків



 Зареєстрований:   2020-03-05 14:03
 Розмір:   2.86 GB 
 Оцінка фільму:   9.1/10 (Голосів: 14)
   
Інші релізи
   48 годин / 48 Hrs. (1982) Remux 1080p 2xUkr/Eng | Sub Eng MakRA  1 / 0   23.87 GB   2020-03-05 14:59 
   48 годин / 48 Hrs. (1982) 720p Ukr/Eng | Sub Eng drop_plz  2 / 0   3.77 GB   2018-07-15 14:13 
   48 годин / 48 Hrs. (1982) Ukr/Eng Arsenfpu  2 / 0   1.74 GB   2017-09-01 14:00 
MakRA 
VIP


З нами з: 11.11.18
Востаннє: 07.07.20
Повідомлень: 1085

2020-03-05 12:27  
21jumpstreet написано:
РЕЛІЗ СТВОРЕНО ДЛЯ ПОЦІНОВУВАЧІВ ПЕРЕКЛАДУ І ОЗВУЧЕННЯ СТАРОГО 1+1

Це новий запис з плюсів?

21jumpstreet 
VIP


З нами з: 03.07.12
Востаннє: 06.07.20
Повідомлень: 1092

2020-03-05 12:33  
MakRA
так, стара озвучка від 1+1 певно 90-х - 00-х

igor911 
Модератор відео


З нами з: 18.01.08
Востаннє: 06.07.20
Повідомлень: 14857

2020-03-05 13:06  
21jumpstreet, чому також не було додано інше озвучення? Цей реліз піде в архів, коли з'явиться аналогічний з двома озвучками.

Додано через 50 секунд:

Два з трьох скріншотів не відповідають заявленому розміру кадру, треба замінити.

robotron005 
Відео Гуртом - фільмокрай
Відео Гуртом - фільмокрай


З нами з: 29.01.09
Востаннє: 06.07.20
Повідомлень: 3335

2020-03-05 13:06  
Якшо комусь цiкаво,
то у цьому записi делiкатно зацензурено слово "тра*нутись", яке за фiльм звучать приблизно разiв шiсть.

igor911 
Модератор відео


З нами з: 18.01.08
Востаннє: 06.07.20
Повідомлень: 14857

2020-03-05 13:48  
21jumpstreet написано:
Тему перенесено з Фільми до форуму Анонси релізів

Також бажано заповнити заголовки до українських доріжок та вибрати для них мову (при муксуванні в mkvtoolnix'і)

bot 
робот


З нами з: 30.09.07
Востаннє: 26.05.05
Повідомлень: 24984

2020-03-05 14:03  
Тему перенесено з Анонси релізів до форуму Фільми


21jumpstreet

21jumpstreet 
VIP


З нами з: 03.07.12
Востаннє: 06.07.20
Повідомлень: 1092

2020-03-05 14:05  
РЕЛІЗ ОНОВЛЕНО! ДОДАНО ОЗВУЧЕННЯ З ICTV! ВИПРАВЛЕНО СКРІНШОТИ!
W3223W 
Частий відвідувач


З нами з: 07.11.18
Востаннє: 05.07.20
Повідомлень: 47

2020-03-07 14:24  
Дуже дякую, дивився у дитинстві - був дуже враженний тоді, хочу ще раз глянути Happy
Ваш часовий пояс: GMT + 2 Години

Нова тема   Відповісти