Як украсти мільйон / How to Steal a Million (1966) [USA Transfer] 1080p H.265 2xUkr/Eng | Sub Ukr/Eng

Нові коментарі

Нова тема   Відповісти
Автор Повідомлення
Anonymous 







2020-03-05 10:44  
Як украсти мільйон / How to Steal a Million (1966) [USA Transfer] 1080p H.265 2xUkr/Eng | Sub Ukr/Eng

Як украсти мільйон / How to Steal a Million (1966) [USA Transfer] 1080p H.265 2xUkr/Eng | Sub Ukr/Eng


Жанр: комедія, кримінальний, романтичний
Країна: США
Кінокомпанія: World Wide Productions, Twentieth Century Fox Film Company
Режисер: Вільям Вайлер [William Wyler]
Актори: Одрі Гепберн [Audrey Hepburn], Пітер О’Тул [Peter O'Toole], Елі Воллах [Eli Wallach], Гью Ґріффіт [Hugh Griffith], Шарль Буайе [Charles Boyer], Фернанд Греві[Fernand Gravey], Марсель Дальйо [Marcel Dalio], Жак Марін [Jacques Marin], Мусташ [Moustache], Роже Тревіль [Roger Tréville], Едвард Малін [Edward Malin], Берт Бертман [Bert Bertram]

Сюжет:
Чарівна пригодницька комедія за книгою Джорджа Бредшоу.

Про художню колекцію Шарля Бонне у Парижі поширювались легенди, але мало хто її бачив. Зрідка він щось зі своїх скарбів продавав на аукціонах чи дарував відомим музеям. Та, окрім його доньки Ніколь, ніхто не знав, що Бонне – геніальний фальсифікатор. Ніколь вже втратила надію вмовити батька припинити своє незаконне заняття, як раптом стався “прокол”. Піддавшись хвилинній спокусі, Бонне погодився виставити в державному музеї один із найпрекрасніших творів своєї колекції - “Венеру Челліні”. Згідно з правилами, статуетку буде піддано технічній експертизі. Катастрофа неминуча! І тут на допомогу сім’ї приходить Саймон Дермотт, приватний детектив, який розкрив таємницю колекції. Але закохавшись у Ніколь, він рятує Бонне від гучного скандалу і відповідно ганьби у мистецькому світі...

Тривалість: 02:03:24
Якість:

Відео:
кодек: H.265 (HEVC)
розмір кадру: 1920 x 816
бітрейт: 10 963 кб/с
бітова глибина: 10 біт

Увага! Перед завантаженням переконайтесь, що ваш пристрій відтворення (та/або ПЗ) підтримує H.265 (HEVC)

Аудіо # 1:
мова: українська
переклад: двоголосий закадровий
кодек: AC-3 2.0
бітрейт: 192 кб/с

Аудіо # 2:
мова: українська
переклад: багатоголосий закадровий
кодек: AC-3 2.0
бітрейт: 192 кб/с

Аудіо # 3:
мова: англійська
переклад: оригінал
кодек: 5.1
бітрейт: 1510 кб/с

Субтитри # 1: (Full)
мова: українська
тип: програмні (м'які)
формат: *.srt

Субтитри # 2: (Full)
мова: англійська
тип: програмні (м'які)
формат: *.srt


Info
Код:
General
Unique ID                                : 252011583281513706271325203169706049395 (0xBD97AA5B6B0CDB1493E4B71D8344FF73)
Complete name                            : How to Steal a Million (1966) 1080p H.265 [2xUKR_ENG] [Hurtom].
Format                                   :
Format version                           : Version 4
File size                                : 11.1 GiB
Duration                                 : 2 h 3 min
Overall bit rate                         : 12.9 Mb/s
Movie name                               : Як украсти мільйон / How to Steal a Million (1966)
Encoded date                             : UTC 2020-05-03 18:45:06
Writing application                      : v20.0.0 ('I Am The Sun') 64-bit
Writing library                          : libebml v1.3.5 + v1.4.8
Cover                                    : Yes
Attachments                              : Cover.jpg

Video
ID                                       : 1
Format                                   : HEVC
Format/Info                              : High Efficiency Video Coding
Format profile                           : Main [email protected]@High
Codec ID                                 : V_MPEGH/ISO/HEVC
Duration                                 : 2 h 3 min
Bit rate                                 : 11.0 Mb/s
Width                                    : 1 920 pixels
Height                                   : 816 pixels
Display aspect ratio                     : 2.35:1
Frame rate mode                          : Constant
Frame rate                               : 23.976 (24000/1001) FPS
Color space                              : YUV
Chroma subsampling                       : 4:2:0
Bit depth                                : 10 bits
Bits/(Pixel*Frame)                       : 0.292
Stream size                              : 9.45 GiB (85%)
Title                                    : Як украсти мільйон / How to Steal a Million (1966)
Writing library                          : x265 3.2.1+3-b4b2ecac21f6:[Windows][MSVC 1924][64 bit] 10bit
Encoding settings                        : cpuid=1111039 / frame-threads=3 / numa-pools=12 / wpp / no-pmode / no-pme / no-psnr / no-ssim / log-level=2 / input-csp=1 / input-res=1920x816 / interlace=0 / total-frames=177528 / level-idc=41 / high-tier=1 / uhd-bd=0 / ref=5 / no-allow-non-conformance / no-repeat-headers / annexb / no-aud / no-hrd / info / hash=0 / no-temporal-layers / open-gop / min-keyint=23 / keyint=240 / gop-lookahead=0 / bframes=16 / b-adapt=2 / b-pyramid / bframe-bias=0 / rc-lookahead=40 / lookahead-slices=0 / scenecut=40 / radl=0 / no-splice / no-intra-refresh / ctu=64 / min-cu-size=8 / rect / amp / max-tu-size=32 / tu-inter-depth=4 / tu-intra-depth=4 / limit-tu=1 / rdoq-level=2 / dynamic-rd=0.00 / no-ssim-rd / signhide / no-tskip / nr-intra=0 / nr-inter=0 / no-constrained-intra / no-strong-intra-smoothing / max-merge=5 / limit-refs=3 / no-limit-modes / me=3 / subme=7 / merange=57 / temporal-mvp / no-hme / weightp / weightb / no-analyze-src-pics / deblock=-3:-3 / no-sao / no-sao-non-deblock / rd=6 / selective-sao=0 / no-early-skip / rskip / no-fast-intra / no-tskip-fast / no-cu-lossless / b-intra / no-splitrd-skip / rdpenalty=0 / psy-rd=2.00 / psy-rdoq=1.00 / no-rd-refine / no-lossless / cbqpoffs=0 / crqpoffs=0 / rc=crf / crf=18.7 / qcomp=0.60 / qpstep=4 / stats-write=0 / stats-read=0 / vbv-maxrate=50000 / vbv-bufsize=50000 / vbv-init=0.9 / crf-max=0.0 / crf-min=0.0 / ipratio=1.40 / pbratio=1.30 / aq-mode=4 / aq-strength=0.90 / no-cutree / zone-count=0 / no-strict-cbr / qg-size=32 / no-rc-grain / qpmax=69 / qpmin=0 / no-const-vbv / sar=1 / overscan=0 / videoformat=5 / range=0 / colorprim=2 / transfer=2 / colormatrix=2 / chromaloc=0 / display-window=0 / cll=0,0 / min-luma=0 / max-luma=1023 / log2-max-poc-lsb=8 / vui-timing-info / vui-hrd-info / slices=1 / no-opt-qp-pps / no-opt-ref-list-length-pps / no-multi-pass-opt-rps / scenecut-bias=0.00 / no-opt-cu-delta-qp / no-aq-motion / no-hdr / no-hdr-opt / no-dhdr10-opt / no-idr-recovery-sei / analysis-reuse-level=5 / scale-factor=0 / refine-intra=0 / refine-inter=0 / refine-mv=1 / refine-ctu-distortion=0 / no-limit-sao / ctu-info=0 / no-lowpass-dct / refine-analysis-type=0 / copy-pic=1 / max-ausize-factor=1.0 / no-dynamic-refine / no-single-sei / no-hevc-aq / no-svt / no-field / qp-adaptation-range=1.00
Language                                 : English
Default                                  : Yes
Forced                                   : No

Audio #1
ID                                       : 2
Format                                   : AC-3
Format/Info                              : Audio Coding 3
Commercial name                          : Dolby Digital
Codec ID                                 : A_AC3
Duration                                 : 2 h 3 min
Bit rate mode                            : Constant
Bit rate                                 : 192 kb/s
Channel(s)                               : 2 channels
Channel layout                           : L R
Sampling rate                            : 48.0 kHz
Frame rate                               : 31.250 FPS (1536 SPF)
Compression mode                         : Lossy
Stream size                              : 169 MiB (1%)
Title                                    : / 2.0 Ch / 192 kbps / ДЗ / 1+1
Language                                 : Ukrainian
Service kind                             : Complete Main
Default                                  : Yes
Forced                                   : Yes

Audio #2
ID                                       : 3
Format                                   : AC-3
Format/Info                              : Audio Coding 3
Commercial name                          : Dolby Digital
Codec ID                                 : A_AC3
Duration                                 : 2 h 3 min
Bit rate mode                            : Constant
Bit rate                                 : 192 kb/s
Channel(s)                               : 2 channels
Channel layout                           : L R
Sampling rate                            : 48.0 kHz
Frame rate                               : 31.250 FPS (1536 SPF)
Compression mode                         : Lossy
Delay relative to video                  : 1 s 0 ms
Stream size                              : 169 MiB (1%)
Title                                    : / 2.0 Ch / 192 kbps / БЗ / ICTV / "Так Треба Продакшн" (Tanat13, Merdiff, karvai0)
Language                                 : Ukrainian
Service kind                             : Complete Main
Default                                  : No
Forced                                   : Yes

Audio #3
ID                                       : 4
Format                                   :
Format/Info                              : Digital Theater Systems
Codec ID                                 : A_DTS
Duration                                 : 2 h 3 min
Bit rate mode                            : Constant
Bit rate                                 : 1 509 kb/s
Channel(s)                               : 6 channels
Channel layout                           : C L R Ls Rs LFE
Sampling rate                            : 48.0 kHz
Frame rate                               : 93.750 FPS (512 SPF)
Bit depth                                : 24 bits
Compression mode                         : Lossy
Delay relative to video                  : 1 s 0 ms
Stream size                              : 1.30 GiB (12%)
Title                                    : / 5.1 Ch / 1509 kbps / Original
Language                                 : English
Default                                  : No
Forced                                   : No

Text #1
ID                                       : 5
Format                                   : UTF-8
Codec ID                                 : S_TEXT/UTF8
Codec ID/Info                            : UTF-8 Plain Text
Duration                                 : 2 h 0 min
Bit rate                                 : 85 b/s
Count of elements                        : 1139
Stream size                              : 75.3 KiB (0%)
Title                                    : Full
Language                                 : Ukrainian
Default                                  : No
Forced                                   : No

Text #2
ID                                       : 6
Format                                   : UTF-8
Codec ID                                 : S_TEXT/UTF8
Codec ID/Info                            : UTF-8 Plain Text
Duration                                 : 2 h 0 min
Bit rate                                 : 49 b/s
Count of elements                        : 1136
Stream size                              : 44.1 KiB (0%)
Title                                    : Full
Language                                 : English
Default                                  : No
Forced                                   : No

Menu
00:00:00.000                             : en:Main Titles
00:01:49.000                             : en:The Auction
00:04:45.640                             : en:Masterpieces
00:07:29.960                             : en:The Cellini Venus
00:14:40.920                             : en:Society Burglar
00:21:16.240                             : en:Need a Lift?
00:26:50.280                             : en:A Terrible Man
00:30:11.000                             : en:A Great Van Gogh
00:34:32.000                             : en:Subterfuge
00:39:45.000                             : en:A Small Glitch
00:46:18.680                             : en:Proposition
00:50:37.720                             : en:Casing the Joint
00:56:00.160                             : en:Tools of the Trade
01:03:29.520                             : en:Engagement
01:05:39.480                             : en:Ready, Set...
01:11:21.960                             : en:In the Closet
01:20:34.520                             : en:Psychological Warfare
01:27:02.200                             : en:Encore
01:34:00.200                             : en:The Deed
01:41:57.240                             : en:Art Lovers
01:46:00.200                             : en:The Fence
01:49:04.240                             : en:Owning Up
01:52:43.240                             : en:Two Gorgeous Girls
01:57:40.000                             : en:End Titles
Світлини




Джерело: &
Особиста оцінка: 0 - не дивився


Срібний реліз (на рейтинг впливає 50% завантаженого)
 Трекер:    Зареєстрований   

Завантажити / скачати фільм українською



відео для новачків



 Зареєстрований:   2020-05-03 22:24
 Розмір:   11.08 GB 
 Оцінка фільму:   9.3/10 (Голосів: 13)
   
MakRA 
VIP


З нами з: 11.11.18
Востаннє: 26.09.20
Повідомлень: 1120

2020-03-05 13:04  
Просто класика Happy
Anonymous 







2020-05-03 22:24  
Доріжка від з нового запису.
Ваш часовий пояс: GMT + 2 Години

Нова тема   Відповісти