Джуманджі: Наступний рівень / Jumanji: The Next Level (2019) Remux 1080p Ukr/Eng | Sub Ukr/Eng

Нові коментарі

Нова тема   Відповісти
Автор Повідомлення
Anonymous 







2020-03-05 03:48  


Джуманджі: Наступний рівень / Jumanji: The Next Level (2019) Remux 1080p Ukr/Eng | Sub Ukr/Eng



«Наступний рівень»






Альтернативні постери






Жанр: екшн, комедія, пригодницький
Країна: США











Кінокомпанія: Hartbeat Productions, Instinctual VFX, Matt Tolmach Productions
Режисер: Джейк Кездан
Актори: Двейн Джонсон, Карен Ґіллан, Кевін Гарт, Джек Блек, Нора Люм, Нік Джонас, Денні ДеВіто, Дені Ґловер, Колін Хенкс та інші.


Сюжет:
Світ Джуманджі ніколи не був привітним, гостинним і безпечним місцем. Всі, хто там побував, зовсім не горять бажанням туди повертатися. Але з волі випадку Спенсер там опинився, та ще й зовсім один. Благо, його друзі помітили те, що він у грі – значить, приятеля треба рятувати, сам він у цьому небезпечному світі не виживе. Але все вже зовсім не таке, як було минулого разу. Гравцям знадобиться вся їхня сміливість, щоб зустрітися з невідомими та недослідженими куточками Джуманджі – від пустель до засніжених гір. Усе лише для того, щоб знайти друга та назавжди покинути цей небезпечний світ.



Тривалість: 02:03:10
Якість: Blu-ray Remux 1080p


Відео:
кодек:
розмір кадру: 1920 x 1080
бітрейт: ~27900 кб/с

Аудіо # 1:
мова: українська
переклад: професійний дубльований
кодек: 5.1
бітрейт: 640 кб/с

Аудіо # 2:
мова: українська
переклад: професійний дубльований
кодек: 2.0
бітрейт: 192 кб/с

Аудіо # 3:
мова: англійська
переклад: оригінал
кодек: 5.1
бітрейт: 640 кб/с

Аудіо # 4:
мова: англійська
переклад: оригінал
кодек: -HD MA 5.1
бітрейт: 3725 кб/с

Джерело озвучення:
&

Субтитри # 1 - 2: (Forced, Full)
мова: українська
тип: програмні (м'які)
формат: *.srt

Субтитри # 3: (Full)
мова: англійська
тип: програмні (м'які)
формат: *.srt

Info
Код:
General
Complete name                            : Jumanji The Next Level (2019) Remux 1080p [ukr, eng] [video_hurtom].
Format                                   :
Format version                           : Version 4
File size                                : 28.5 GiB
Duration                                 : 2 h 3 min
Overall bit rate mode                    : Variable
Overall bit rate                         : 33.1 Mb/s
Movie name                               : Джуманджі: Наступний рівень / Jumanji: The Next Level (2019) Remux 1080p
Encoded date                             : UTC 2020-03-20 17:55:34
Writing application                      : v30.1.0 ('Forever And More') 64-bit
Writing library                          : libebml v1.3.6 + v1.4.9
Cover                                    : Yes
Attachments                              : cover.jpg

Video
ID                                       : 1
Format                                   : AVC
Format/Info                              : Advanced Video Codec
Format profile                           : [email protected]
Format settings                          : CABAC / 2 Ref Frames
Format settings, CABAC                   : Yes
Format settings, RefFrames               : 2 frames
Format settings, GOP                     : M=1, N=10
Codec ID                                 : V_MPEG4/ISO/AVC
Duration                                 : 2 h 3 min
Bit rate mode                            : Variable
Bit rate                                 : 27.9 Mb/s
Width                                    : 1 920 pixels
Height                                   : 1 080 pixels
Display aspect ratio                     : 16:9
Frame rate mode                          : Constant
Frame rate                               : 23.976 (24000/1001) FPS
Color space                              : YUV
Chroma subsampling                       : 4:2:0
Bit depth                                : 8 bits
Scan type                                : Progressive
Bits/(Pixel*Frame)                       : 0.561
Stream size                              : 24.0 GiB (84%)
Language                                 : English
Default                                  : Yes
Forced                                   : No

Audio #1
ID                                       : 2
Format                                   : AC-3
Format/Info                              : Audio Coding 3
Commercial name                          : Dolby Digital
Codec ID                                 : A_AC3
Duration                                 : 2 h 3 min
Bit rate mode                            : Constant
Bit rate                                 : 640 kb/s
Channel(s)                               : 6 channels
Channel layout                           : L R C LFE Ls Rs
Sampling rate                            : 48.0 kHz
Frame rate                               : 31.250 FPS (1536 SPF)
Bit depth                                : 16 bits
Compression mode                         : Lossy
Stream size                              : 564 MiB (2%)
Title                                    : 5.1 | 640
Language                                 : Ukrainian
Service kind                             : Complete Main
Default                                  : Yes
Forced                                   : No

Audio #2
ID                                       : 3
Format                                   : AC-3
Format/Info                              : Audio Coding 3
Commercial name                          : Dolby Digital
Codec ID                                 : A_AC3
Duration                                 : 2 h 3 min
Bit rate mode                            : Constant
Bit rate                                 : 192 kb/s
Channel(s)                               : 2 channels
Channel layout                           : L R
Sampling rate                            : 44.1 kHz
Frame rate                               : 28.711 FPS (1536 SPF)
Bit depth                                : 16 bits
Compression mode                         : Lossy
Stream size                              : 169 MiB (1%)
Title                                    : 2.0 | 192
Language                                 : Ukrainian
Service kind                             : Complete Main
Default                                  : No
Forced                                   : No

Audio #3
ID                                       : 4
Format                                   : AC-3
Format/Info                              : Audio Coding 3
Commercial name                          : Dolby Digital
Codec ID                                 : A_AC3
Duration                                 : 2 h 3 min
Bit rate mode                            : Constant
Bit rate                                 : 640 kb/s
Channel(s)                               : 6 channels
Channel layout                           : L R C LFE Ls Rs
Sampling rate                            : 48.0 kHz
Frame rate                               : 31.250 FPS (1536 SPF)
Bit depth                                : 16 bits
Compression mode                         : Lossy
Stream size                              : 564 MiB (2%)
Title                                    : 5.1 | 640
Language                                 : English
Service kind                             : Complete Main
Default                                  : No
Forced                                   : No

Audio #4
ID                                       : 5
Format                                   : XLL
Format/Info                              : Digital Theater Systems
Commercial name                          : -HD Master Audio
Codec ID                                 : A_DTS
Duration                                 : 2 h 3 min
Bit rate mode                            : Variable
Bit rate                                 : 3 725 kb/s
Channel(s)                               : 6 channels
Channel layout                           : C L R Ls Rs LFE
Sampling rate                            : 48.0 kHz
Frame rate                               : 93.750 FPS (512 SPF)
Bit depth                                : 24 bits
Compression mode                         : Lossless
Stream size                              : 3.20 GiB (11%)
Title                                    : -HD MA 5.1 | 3725
Language                                 : English
Default                                  : No
Forced                                   : No

Text #1
ID                                       : 6
Format                                   : UTF-8
Codec ID                                 : S_TEXT/UTF8
Codec ID/Info                            : UTF-8 Plain Text
Duration                                 : 2 h 2 min
Bit rate                                 : 0 b/s
Count of elements                        : 9
Stream size                              : 486 Bytes (0%)
Title                                    : Forced
Language                                 : Ukrainian
Default                                  : Yes
Forced                                   : No

Text #2
ID                                       : 7
Format                                   : UTF-8
Codec ID                                 : S_TEXT/UTF8
Codec ID/Info                            : UTF-8 Plain Text
Duration                                 : 2 h 1 min
Bit rate                                 : 75 b/s
Count of elements                        : 1571
Stream size                              : 67.2 KiB (0%)
Title                                    : FuLL
Language                                 : Ukrainian
Default                                  : No
Forced                                   : No

Text #3
ID                                       : 8
Format                                   : UTF-8
Codec ID                                 : S_TEXT/UTF8
Codec ID/Info                            : UTF-8 Plain Text
Duration                                 : 1 h 52 min
Bit rate                                 : 58 b/s
Count of elements                        : 1719
Stream size                              : 48.5 KiB (0%)
Title                                    : Full
Language                                 : English
Default                                  : No
Forced                                   : No

Menu
00:00:00.000                             : en:Chapter01
00:09:18.349                             : en:Chapter02
00:17:40.476                             : en:Chapter03
00:23:10.681                             : en:Chapter04
00:31:12.287                             : en:Chapter05
00:38:19.130                             : en:Chapter06
00:42:39.265                             : en:Chapter07
00:48:52.972                             : en:Chapter08
00:57:11.428                             : en:Chapter09
01:06:03.001                             : en:Chapter10
01:13:16.142                             : en:Chapter11
01:21:29.093                             : en:Chapter12
01:28:33.725                             : en:Chapter13
01:32:39.512                             : en:Chapter14
01:37:05.403                             : en:Chapter15
01:45:00.586                             : en:Chapter16

Скріншоти










Джерело: &
Особиста оцінка: 8 - мені сподобалося






Золотий реліз (завантажене не впливає на рейтинг)
 Трекер:    Зареєстрований   

Завантажити / скачати фільм українською



відео для новачків



 Зареєстрований:   2020-03-21 08:13
 Розмір:   28.49 GB 
 Оцінка фільму:   9.2/10 (Голосів: 38)
   
MakRA 
VIP


З нами з: 11.11.18
Востаннє: 20.09.20
Повідомлень: 1118

2020-03-05 16:05  
Класна весела комедійно-розважальна стрічка. Смішних моментів багато, дубляж шикарний.
Gybalj 
Свій


З нами з: 14.05.09
Востаннє: 15.09.20
Повідомлень: 79

2020-03-05 19:47  
Підскажіть будь-ласка де можна почитати інформацію (ссилку), чому на іноземні фільми в Україні такий низький бітрейт і 2х канальний звук, дякую!
SYORA 
Новенький


З нами з: 20.07.19
Востаннє: 19.09.20
Повідомлень: 17

2020-03-05 20:13  
Шановний Anonymous , коли чекати від Вас HDR Remux 2160p?
Anonymous 







2020-03-06 01:31  
SYORA написано:
Шановний Anonymous , коли чекати від Вас HDR Remux 2160p?

сьогодні

SYORA 
Новенький


З нами з: 20.07.19
Востаннє: 19.09.20
Повідомлень: 17

2020-03-06 18:09  
Ось сьогодні і дякую Вам.

Додано через 4 хвилини 11 секунд:

Напевно десь так буде. Відео: 3840x2160 at 23.976 fps, MPEG-H HEVC HDR Video, 47300 kbps

Drool 
VIP


З нами з: 17.04.10
Востаннє: 19.09.20
Повідомлень: 1547

2020-03-06 20:16  
Gybalj написано:
чому на іноземні фільми в Україні такий низький бітрейт і 2х канальний звук, дякую
Тому що україномовні фільми не купуються на цифрових носіях і на платних цифрових ресурсах типу iTunes чи Megogo.
Anonymous 







2020-03-21 08:13  
Торент файл оновлено. Додано доріжку з 
O_omarella! 
Поважний учасник


З нами з: 14.06.13
Востаннє: 18.08.20
Повідомлень: 194

2020-03-21 16:40  
На один раз, особливо не відрізняється від першої частини.
Anonymous 







2020-04-16 22:37  
Гарна частина
IRONHIDE 
VIP


З нами з: 06.08.10
Востаннє: 19.09.20
Повідомлень: 279

2020-04-21 09:35  
Краща за першу!
Ваш часовий пояс: GMT + 2 Години

Нова тема   Відповісти