Відок / Vidocq (2001) 1080p H.265 Ukr/Fre | Sub Fre/Eng

Нові коментарі

Нова тема   Відповісти
Автор Повідомлення
Anonymous 







2020-03-04 10:43  
Відок / Vidocq (2001) 1080p H.265 Ukr/Fre | Sub Fre/Eng

Відок / Vidocq (2001) 1080p H.265 Ukr/Fre | Sub Fre/Eng


Жанр: бойовик, трилер, кримінальний, драма, детектив
Країна: Франція
Кінокомпанія: RF2K Productions, Studio Canal, TF1 Films Production, Canal+, Centre National de la Cinématographie
Режисер: Пітоф
Актори: Жерар Депардьє, Гійом Кане, Інес Састре, Андре Дюссольє, Едіт Скоб, Мусса Мааскрі, Жан-П'єр Гос, Ізабель Рено, Жан-Поль Дюбуа, Андре Пенверн

Сюжет:
Париж ХIХ століття охоплений панікою. У його «череві» завівся серійний вбивця, якого може спіймати лише геніальний детектив Відок. Реальний історичний персонаж, який не знає спочинку - особливо у виконанні громоподібного Депардьє - ні у своїх перевтіленнях, ні в диявольській інтуїції. Він переслідує загадкового Алхіміка. Чарівні декорації міста, яке розривають спалахи блискавок, потаємні двері, одурманені наркотичним божевіллям, в хитромудру лабораторію, де паморочиться голова.

Тривалість: 01:37:30
Якість:

Відео:
кодек: H.265 (HEVC)
розмір кадру: 1916 x 1044
бітрейт: 7 180 кб/с
бітова глибина: 10 біт

Увага! Перед завантаженням переконайтесь, що ваш пристрій відтворення (та/або ПЗ) підтримує H.265 (HEVC)

Аудіо # 1:
мова: українська
переклад: двоголосий закадровий
кодек: AC-3 5.1
бітрейт: 384 кб/с

Аудіо # 2:
мова: французька
переклад: оригінал
кодек: AC-3 5.1
бітрейт: 640 кб/с

Субтитри # 1: (Full)
мова: французька
тип: програмні (м'які)
формат: *.srt

Субтитри # 2: (Full)
мова: англійська
тип: програмні (м'які)
формат: *.srt


Info
Код:
General
Unique ID                                : 282632540131332798924687831552999496613 (0xD4A10C173F260A9FE07A0029DD871BA5)
Complete name                            : Vidocq (2001) 1080p H.265 [UKR_FRE] [Hurtom].
Format                                   :
Format version                           : Version 4
File size                                : 5.59 GiB
Duration                                 : 1 h 37 min
Overall bit rate                         : 8 198 kb/s
Movie name                               : Відок / Vidocq (2001)
Encoded date                             : UTC 2020-03-04 07:40:32
Writing application                      : v20.0.0 ('I Am The Sun') 64-bit
Writing library                          : libebml v1.3.5 + v1.4.8
Cover                                    : Yes
Attachments                              : Cover.jpg

Video
ID                                       : 1
Format                                   : HEVC
Format/Info                              : High Efficiency Video Coding
Format profile                           : Main [email protected]@High
Codec ID                                 : V_MPEGH/ISO/HEVC
Duration                                 : 1 h 37 min
Bit rate                                 : 7 179 kb/s
Width                                    : 1 916 pixels
Height                                   : 1 044 pixels
Display aspect ratio                     : 1.85:1
Frame rate mode                          : Constant
Frame rate                               : 24.000 FPS
Color space                              : YUV
Chroma subsampling                       : 4:2:0
Bit depth                                : 10 bits
Bits/(Pixel*Frame)                       : 0.150
Stream size                              : 4.89 GiB (87%)
Title                                    : Відок / Vidocq (2001)
Writing library                          : x265 3.2.1+3-b4b2ecac21f6:[Windows][MSVC 1924][64 bit] 10bit
Encoding settings                        : cpuid=1111039 / frame-threads=3 / numa-pools=12 / wpp / no-pmode / no-pme / no-psnr / no-ssim / log-level=2 / input-csp=1 / input-res=1916x1044 / interlace=0 / total-frames=140423 / level-idc=41 / high-tier=1 / uhd-bd=0 / ref=5 / no-allow-non-conformance / no-repeat-headers / annexb / no-aud / no-hrd / info / hash=0 / no-temporal-layers / open-gop / min-keyint=23 / keyint=240 / gop-lookahead=0 / bframes=11 / b-adapt=2 / b-pyramid / bframe-bias=0 / rc-lookahead=40 / lookahead-slices=0 / scenecut=40 / radl=0 / no-splice / no-intra-refresh / ctu=64 / min-cu-size=8 / rect / amp / max-tu-size=32 / tu-inter-depth=4 / tu-intra-depth=4 / limit-tu=1 / rdoq-level=2 / dynamic-rd=0.00 / no-ssim-rd / signhide / no-tskip / nr-intra=0 / nr-inter=0 / no-constrained-intra / no-strong-intra-smoothing / max-merge=5 / limit-refs=3 / no-limit-modes / me=3 / subme=7 / merange=57 / temporal-mvp / no-hme / weightp / weightb / no-analyze-src-pics / deblock=-3:-3 / no-sao / no-sao-non-deblock / rd=6 / selective-sao=0 / no-early-skip / rskip / no-fast-intra / no-tskip-fast / no-cu-lossless / b-intra / no-splitrd-skip / rdpenalty=0 / psy-rd=2.00 / psy-rdoq=1.00 / no-rd-refine / no-lossless / cbqpoffs=0 / crqpoffs=0 / rc=crf / crf=20.3 / qcomp=0.60 / qpstep=4 / stats-write=0 / stats-read=0 / vbv-maxrate=50000 / vbv-bufsize=50000 / vbv-init=0.9 / crf-max=0.0 / crf-min=0.0 / ipratio=1.40 / pbratio=1.30 / aq-mode=4 / aq-strength=0.80 / no-cutree / zone-count=0 / no-strict-cbr / qg-size=32 / no-rc-grain / qpmax=69 / qpmin=0 / no-const-vbv / sar=1 / overscan=0 / videoformat=5 / range=0 / colorprim=2 / transfer=2 / colormatrix=2 / chromaloc=0 / display-window=0 / cll=0,0 / min-luma=0 / max-luma=1023 / log2-max-poc-lsb=8 / vui-timing-info / vui-hrd-info / slices=1 / no-opt-qp-pps / no-opt-ref-list-length-pps / no-multi-pass-opt-rps / scenecut-bias=0.00 / no-opt-cu-delta-qp / no-aq-motion / no-hdr / no-hdr-opt / no-dhdr10-opt / no-idr-recovery-sei / analysis-reuse-level=5 / scale-factor=0 / refine-intra=0 / refine-inter=0 / refine-mv=1 / refine-ctu-distortion=0 / no-limit-sao / ctu-info=0 / no-lowpass-dct / refine-analysis-type=0 / copy-pic=1 / max-ausize-factor=1.0 / no-dynamic-refine / no-single-sei / no-hevc-aq / no-svt / no-field / qp-adaptation-range=1.00
Language                                 : English
Default                                  : Yes
Forced                                   : No

Audio #1
ID                                       : 2
Format                                   : AC-3
Format/Info                              : Audio Coding 3
Commercial name                          : Dolby Digital
Codec ID                                 : A_AC3
Duration                                 : 1 h 37 min
Bit rate mode                            : Constant
Bit rate                                 : 384 kb/s
Channel(s)                               : 6 channels
Channel layout                           : L R C LFE Ls Rs
Sampling rate                            : 48.0 kHz
Frame rate                               : 31.250 FPS (1536 SPF)
Compression mode                         : Lossy
Delay relative to video                  : 24 ms
Stream size                              : 268 MiB (5%)
Title                                    : / 5.1 Ch / 384 kbps / ДЗ / 1+1
Language                                 : Ukrainian
Service kind                             : Complete Main
Default                                  : Yes
Forced                                   : Yes

Audio #2
ID                                       : 3
Format                                   : AC-3
Format/Info                              : Audio Coding 3
Commercial name                          : Dolby Digital
Codec ID                                 : A_AC3
Duration                                 : 1 h 37 min
Bit rate mode                            : Constant
Bit rate                                 : 640 kb/s
Channel(s)                               : 6 channels
Channel layout                           : L R C LFE Ls Rs
Sampling rate                            : 48.0 kHz
Frame rate                               : 31.250 FPS (1536 SPF)
Compression mode                         : Lossy
Delay relative to video                  : 24 ms
Stream size                              : 447 MiB (8%)
Title                                    : / 5.1 Ch / 640 kbps / Original
Language                                 : French
Service kind                             : Complete Main
Default                                  : No
Forced                                   : No

Text #1
ID                                       : 4
Format                                   : UTF-8
Codec ID                                 : S_TEXT/UTF8
Codec ID/Info                            : UTF-8 Plain Text
Duration                                 : 1 h 29 min
Bit rate                                 : 31 b/s
Count of elements                        : 652
Stream size                              : 20.4 KiB (0%)
Title                                    : Full
Language                                 : French
Default                                  : No
Forced                                   : No

Text #2
ID                                       : 5
Format                                   : UTF-8
Codec ID                                 : S_TEXT/UTF8
Codec ID/Info                            : UTF-8 Plain Text
Duration                                 : 1 h 33 min
Bit rate                                 : 34 b/s
Count of elements                        : 863
Stream size                              : 23.5 KiB (0%)
Title                                    : Full
Language                                 : English
Default                                  : No
Forced                                   : No

Menu
00:00:00.000                             : en:Paris, 1830
00:05:12.353                             : en:Main Title
00:06:45.071                             : en:The Conspiracy
00:10:53.986                             : en:Church Foundry
00:14:21.735                             : en:Capture Lightning
00:19:24.872                             : en:The Murderer
00:24:00.480                             : en:Next Victim
00:31:18.501                             : en:Cause of Death
00:37:00.009                             : en:Questions
00:41:44.919                             : en:The Investigation
00:47:16.208                             : en:Pure Souls
00:54:22.342                             : en:The Alchemist
01:02:19.777                             : en:?????
01:12:04.361                             : en:?????
01:20:29.449                             : en:A Mirror
01:27:38.586                             : en:The Devil
01:32:15.613                             : en:History Will Tell
01:33:59.884                             : en:Credits
01:37:31.845                             : en:01:37:31.845
Світлини




Джерело: &
Особиста оцінка: 0 - не дивився


Срібний реліз (на рейтинг впливає 50% завантаженого)
 Трекер:    Зареєстрований   

Завантажити / скачати фільм українською



відео для новачків



 Зареєстрований:   2020-03-04 10:43
 Розмір:   5.59 GB 
 Оцінка фільму:   6/10 (Голосів: 9)
   
Інші релізи
   Відок / Vidocq (2001) 1080p Ukr/Fre | Sub Fre/Eng boroznaya  1 / 0   11.2 GB   2018-05-13 15:03 
   Відок / Vidocq (2001) Mendez  7 / 0   1.46 GB   2009-10-04 20:36 
jjb36128 
Частий відвідувач


З нами з: 25.01.18
Востаннє: 09.08.20
Повідомлень: 28

2020-03-04 22:59  
Фу! Скацаплене депердьє. )
Akio Furukawa 
Свій


З нами з: 02.11.19
Востаннє: 20.09.20
Повідомлень: 100

2020-07-25 23:52  
Сюжет маячня якась і фільм знятий якось по-дебільному.
2/10

Ваш часовий пояс: GMT + 2 Години

Нова тема   Відповісти