Згадуючи Титанів / Remember the Titans (2000) 4K UHD HDR 2160p Ukr/Eng | Sub Eng

Нові коментарі

Нова тема   Відповісти
Автор Повідомлення
Documentalist 
Забанено
Забанено


З нами з: 04.06.17
Востаннє: 21.03.20
Повідомлень: 107

2020-03-04 10:14  
Згадуючи Титанів / Remember the Titans (2000) 4K UHD HDR 2160p Ukr/Eng | Sub Eng

Згадуючи Титанів / Remember the Titans (2000) 4K UHD HDR 2160p Ukr/Eng | Sub Eng


Жанр: драма, спорт, біографічний
Країна: США



Кінокомпанія: Walt Disney Pictures, Jerry Bruckheimer Films, Technical Black, Run It Up Productions Inc.
Режисер: Боаз Якін / Boaz Yakin
Актори: Дензел Вашинґтон / Denzel Washington, Вуд Гарріс / Wood Harris, Віл Петтон / Will Patton, Райян Герст / Ryan Hurst, Кіп Парду / Kip Pardue, Дональд Фейсон / Donald Faison, Крейґ Кірквуд / Craig Kirkwood, Ітан Саплі / Ethan Suplee та інші.

Сюжет:
Після того, як він привів футбольну команду до 15 переможних сезонів, тренера Білла Йоаста було понижено та замінено Германом Буном — жорстким, розсудливим і на стільки не схожим на улюбленого Йоаста, наскільки це тільки можливо. Двоє чоловіків вчаться долати свої відмінності і перетворювати групу агресивних молодих чоловіків на чемпіонів.


Тривалість: 01:53:26
Якість:
Відео:
кодек: H.265 (HEVC)
розмір кадру: 3840х2160
бітрейт: 16.3 Mб/с
бітова глибина: 10 біт
кольоровий простір: BT.2020 (HDR)
Увага! Перед завантаженням переконайтесь, що ваш пристрій відтворення (та/або ПЗ) підтримує H.265 (HEVC)

Аудіо:
мова: українська
переклад: багатоголосий закадровий
кодек: 2.0
бітрейт: 192 кб/с

Аудіо: # 2:
мова: англійська
переклад: оригінал
кодек: -HD MA
бітрейт: 4204 кб/с

Субтитри :
мова: англійська
тип: програмні (м'які)
формат: *.srt
Info
File size : 16.4 GiB
Duration : 1 h 54 min
Overall bit rate mode : Variable
Overall bit rate : 20.6 Mb/s
Movie name : Згадуючи Титанів (Remember the Titans) 2000 UHD HDR 2160p [Hurtom]
Encoded date : UTC 2020-03-02 01:24:14
Writing application : v7.8.0 ('River Man') 32bit built on Mar 27 2015 16:18:02
Writing library : libebml v1.3.1 + v1.4.2
Cover : Yes
Attachments : Cover.png / cover.png

Video
ID : 1
Format : HEVC
Format/Info : High Efficiency Video Coding
Format profile : Main [email protected]@High
Codec ID : V_MPEGH/ISO/HEVC
Duration : 1 h 54 min
Bit rate : 16.3 Mb/s
Width : 3 840 pixels
Height : 2 160 pixels
Display aspect ratio : 16:9
Frame rate mode : Constant
Frame rate : 23.976 (24000/1001) FPS
Color space : YUV
Chroma subsampling : 4:2:0
Bit depth : 10 bits
Bits/(Pixel*Frame) : 0.082
Stream size : 13.0 GiB (79%)
Title : Згадуючи Титанів (Remember the Titans) 2000 UHD HDR 2160p [Hurtom]
Language : Ukrainian
Default : Yes
Forced : No
Color range : Limited
Color primaries : BT.2020
Transfer characteristics : PQ
Matrix coefficients : BT.2020 non-constant

Audio #1
ID : 2
Format : AC-3
Format/Info : Audio Coding 3
Commercial name : Dolby Digital
Codec ID : A_AC3
Duration : 1 h 53 min
Bit rate mode : Constant
Bit rate : 192 kb/s
Channel(s) : 2 channels
Channel layout : L R
Sampling rate : 48.0 kHz
Frame rate : 31.250 FPS (1536 SPF)
Compression mode : Lossy
Stream size : 156 MiB (1%)
Language : Ukrainian
Service kind : Complete Main
Default : Yes
Forced : Yes

Audio #2
ID : 3
Format : XLL
Format/Info : Digital Theater Systems
Commercial name : -HD Master Audio
Codec ID : A_DTS
Duration : 1 h 53 min
Bit rate mode : Variable
Bit rate : 4 204 kb/s
Channel(s) : 6 channels
Channel layout : C L R Ls Rs LFE
Sampling rate : 48.0 kHz
Frame rate : 93.750 FPS (512 SPF)
Bit depth : 24 bits
Compression mode : Lossless
Stream size : 3.33 GiB (20%)
Title : Оригінал
Language : English
Default : No
Forced : Yes

Text #1
ID : 4
Format : UTF-8
Codec ID : S_TEXT/UTF8
Codec ID/Info : UTF-8 Plain Text
Duration : 1 h 45 min
Bit rate : 81 b/s
Count of elements : 1981
Stream size : 62.7 KiB (0%)
Title : Повні
Language : English
Default : Yes
Forced : No

Text #2
ID : 5
Format : UTF-8
Codec ID : S_TEXT/UTF8
Codec ID/Info : UTF-8 Plain Text
Duration : 1 h 47 min
Bit rate : 106 b/s
Count of elements : 2645
Stream size : 83.6 KiB (0%)
Title : Повні (SDH)
Language : English
Default : No
Forced : No
Скріншоти
Перегляд 4K HDR-контенту на ПК, керівництво з експлуатації

Для перегляду HDR-контенту необхідний телевізор з підтримкою HDR. Просто запишіть на usb-накопичувач викачане відео і встановіть його в ваш ТВ. На звичайних дисплеях зображення буде виглядати неконтрастним і знебарвленим.

Вирішення цієї проблеми, зараз можливо на PC під ОС Windows, використовуючи плеєр, який підтримує висновок зображення через рендер madvr (http://madvr.com), який може виконувати програмну конверсію, у кольоровий простір і гаму REC.709.

Ми рекомендуємо Media Player Classic Home Cinema.

Після встановлення рекомендованих плеєрів, необхідно окремо встановити madvr.
Для цього скачайте з сайту архів, розпакуйте його в зручне місце і запустіть install.bat від облікового запису адміністратора.
Після установки, папку з вмістом не видаляти!
Якщо папку необхідно перенести в інше місце, то після перенесення необхідно знову запустити install.bat.
Для того, щоб зображення виводилося за допомогою madvr, його необхідно вибрати в налаштуваннях плеєра:


Срібний реліз (на рейтинг впливає 50% завантаженого)
 Трекер:    Зареєстрований   

Завантажити / скачати фільм українською



відео для новачків



 Зареєстрований:   2020-03-04 10:14
 Розмір:   16.44 GB 
 Оцінка фільму:   10/10 (Голосів: 4)
   
Інші релізи
Ваш часовий пояс: GMT + 2 Години

Нова тема   Відповісти