Яскравий літній день / A Brighter Summer Day / Guling jie shaonian sha ren shijian (1991) Chi | sub Ukr/Eng

Нові коментарі

Нова тема   Відповісти
Автор Повідомлення
YesNoMaybe 
Новенький


З нами з: 08.10.17
Востаннє: 29.11.20
Повідомлень: 19

2020-03-03 16:51  
Яскравий літній день / A Brighter Summer Day / Guling jie shaonian sha ren shijian (1991) Chi | sub Ukr/Eng

Яскравий літній день / A Brighter Summer Day / Guling jie shaonian sha ren shijian (1991) Chi | sub Ukr/Eng

Альтернативні постери








Жанр: драма
Країна: Тайвань



Режисер: Едвард Янг
Актори: Чжан Чжень, Ліза Ян, Чжан Куочжу, Елейн Цзін, Ван Цідзань та ін.

Сюжет:
Історія розгортається на початку 60-х у Тайбеї. Після втечі на Тайвань мільйони китайців переживають непрості часи непевності у майбутньому. В цих умовах діти створюють вуличні банди. У центрі сюжету школяр Сяо Си та його стосунки з вчителями, рідними, друзями та дівчатами.


Тривалість: 03:56:37
Якість:
Відео:
кодек:
розмір кадру: 688 х 368
бітрейт: 749 кб/с

Аудіо:
мова: китайська
переклад: оригінал
кодек: MP3
бітрейт: 128 кб/с

Субтитри:
мова: українська
тип: програмні (м'які)
формат: *.srt

Субтитри:
мова: англійська
тип: програмні (м'які)
формат: *.srt
Скріншоти
Info
Код:

General
Format                      : AVI
Format/Info                 : Audio Video Interleave
File size                   : 1.46 GiB
Duration                    : 3 h 56 min
Overall bit rate            : 886 kb/s
Writing application         : VirtualDubMod 1.5.10.3 | www.virtualdub-fr.org || (build 2550/release)
Writing library             : VirtualDubMod build 2550/release

Video
ID                          : 0
Format                      : MPEG-4 Visual
Format profile              : Advanced [email protected]
Format settings             : BVOP2 / Custom Matrix
Format settings, BVOP       : 2
Format settings, QPel       : No
Format settings, GMC        : No warppoints
Format settings, Matrix     : Custom
Codec ID                    :
Codec ID/Hint               :
Duration                    : 3 h 56 min
Bit rate                    : 749 kb/s
Width                       : 688 pixels
Height                      : 368 pixels
Display aspect ratio        : 1.85:1
Frame rate                  : 23.976 (24000/1001) FPS
Color space                 : YUV
Chroma subsampling          : 4:2:0
Bit depth                   : 8 bits
Scan type                   : Progressive
Compression mode            : Lossy
Bits/(Pixel*Frame)          : 0.123
Stream size                 : 1.24 GiB (85%)
Writing library             : 73

Audio
ID                          : 1
Format                      : MPEG Audio
Format version              : Version 1
Format profile              : Layer 3
Codec ID                    : 55
Codec ID/Hint               : MP3
Duration                    : 3 h 56 min
Bit rate mode               : Constant
Bit rate                    : 128 kb/s
Channel(s)                  : 1 channel
Sampling rate               : 48.0 kHz
Frame rate                  : 41.667 FPS (1152 SPF)
Compression mode            : Lossy
Stream size                 : 217 MiB (14%)
Alignment                   : Aligned on interleaves
Interleave, duration        : 42  ms (1.00 video frame)
Interleave, preload duratio : 504  ms
Writing library             : LAME3.98r
Encoding settings           : -m m -V 4 -q 2 -lowpass 20.5 -b 128
Локалізація постерів і переклад: screenmy
Особиста оцінка: 10


Золотий реліз (завантажене не впливає на рейтинг)
 Трекер:    Зареєстрований   

Завантажити / скачати фільм українською



відео для новачків



 Зареєстрований:   2020-03-03 16:51
 Розмір:   1.46 GB 
 Оцінка фільму:   10/10 (Голосів: 3)
   
SurFutur 
VIP


З нами з: 12.03.15
Востаннє: 29.11.20
Повідомлень: 511

2020-03-03 18:38  
Оце так... Ви зробили мій день, не менше! Я вас люблю Happy

І дякую, що завантажили субтитри окремо! Можете також додати посилання в описі на OpenSubtitles
Код:
[url=https://www.opensubtitles.org/uk/subtitles/8115439/gu-ling-jie-shao-nian-sha-ren-shi-jian-uk][b][color=Black]OpenSubtitles[/color][/b][/url]


Ще можна додати кнопки Metacritic і Rotten Tomatoes. Поруч із IMDB це виглядатиме так:

| - 90 | - 100%
Код:
 | [url=http://www.metacritic.com/movie/a-brighter-summer-day-1991][img]http://img.hurtom.com/i/2017/02/metacritic16bf4.png[/img] - [size=14][b][color=Green]90[/color][/b][/size][/url] | [url=http://www.rottentomatoes.com/m/a_brighter_summer_day_1991][img]http://img.hurtom.com/i/2017/02/RottenTomatoes2ea56.png[/img] - [size=14][b][color=Red]100%[/b][/size][/color][/url]

Ваш часовий пояс: GMT + 2 Години

Нова тема   Відповісти