Зоряні війни: Скайвокер. Сходження / Star Wars: Episode IX - The Rise of Skywalker (2019) Remux 1080p Ukr/Eng | Sub Eng

Нові коментарі

Нова тема   Відповісти
Автор Повідомлення
Anonymous 







2020-03-02 19:25  


Зоряні війни: Скайвокер. Сходження / Star Wars: Episode IX - The Rise of Skywalker (2019) Remux 1080p Ukr/Eng | Sub Eng



«Every Generation Has A Legend»



Зоряні війни: Скайвокер. Сходження / Star Wars: Episode IX - The Rise of Skywalker (2019) Remux 1080p Ukr/Eng | Sub Eng



Жанр: пригоди, фантастика, екшн
Країна: США











Кінокомпанія: Walt Disney Pictures, Bad Robot, Lucasfilm Ltd.
Режисер: Джей Джей Абрамс
Актори: Дейзі Рідлі, Адам Драйвер, Керрі Фішер, Марк Хемілл, Джон Бойега, Оскар Айзек, Ентоні Деніелс, Наомі Акі, Донал Глісон, Річард Е. Грант


Сюжет:
Багато років тому ми вперше перенеслися в далеку галактику, із якою прожили чимало подій. Й ось настав той момент, коли все це підходить до свого завершення. Рей продовжує свій шлях, свою боротьбу. На ній лежить великий тягар відповідальності, адже від неї залежить доля всієї галактики. У неї є сила та люди, які готові піти за дівчиною. Грандіозна історія родини Скайвокерів підходить до свого завершення, нас чекає епічний фінал епічної саги.



Тривалість: 02:21:53
Якість: Remux 1080p

Відео:
кодек:
розмір кадру: 1920x1080
бітрейт: ~33.3 Мб/с

Аудіо # 1:
мова: українська
переклад: професійний дубльований
кодек: -HD MAster 5.1
бітрейт: 3828 кб/с

Аудіо # 2:
мова: українська
переклад: професійний дубльований
кодек: 5.1
бітрейт: 1536 кб/с

Аудіо # 3:
мова: українська
переклад: професійний дубльований
кодек: 5.1
бітрейт: 640 кб/с

Аудіо # 4:
мова: англійська
переклад: оригінал
кодек: -HD Master 7.1
бітрейт: 4997 кб/с

Субтитри: (Forced)
мова: українська (Окремо)
тип: програмні (м'які) (Завантажити # 1) | (Завантажити # 2)
формат: *.srt

Субтитри # 1-3: (Forced, Full, SDH)
мова: англійська
тип: програмні (м'які)
формат: *.pgs

Info
Код:
General
Complete name                            : Star Wars Episode IX - The Rise of Skywalker (2019) Blu-Ray Remux 1080p [Ukr_Eng] [Video_Hurtom].
Format                                   :
Format version                           : Version 4
File size                                : 43.9 GiB
Duration                                 : 2 h 21 min
Overall bit rate mode                    : Variable
Overall bit rate                         : 44.3 Mb/s
Movie name                               : Зоряні війни: Скайвокер. Сходження / Star Wars: Episode IX - The Rise of Skywalker (2019) Remux 1080p Ukr/Eng | Sub Eng
Encoded date                             : UTC 2020-03-21 13:29:45
Writing application                      : v30.1.0 ('Forever And More') 64-bit
Writing library                          : libebml v1.3.6 + v1.4.9
Cover                                    : Yes
Attachments                              : cover.jpg

Video
ID                                       : 1
Format                                   : AVC
Format/Info                              : Advanced Video Codec
Format profile                           : [email protected]
Format settings                          : CABAC / 4 Ref Frames
Format settings, CABAC                   : Yes
Format settings, RefFrames               : 4 frames
Format settings, GOP                     : M=3, N=12
Codec ID                                 : V_MPEG4/ISO/AVC
Duration                                 : 2 h 21 min
Bit rate mode                            : Variable
Bit rate                                 : 33.3 Mb/s
Maximum bit rate                         : 37.2 Mb/s
Width                                    : 1 920 pixels
Height                                   : 1 080 pixels
Display aspect ratio                     : 16:9
Frame rate mode                          : Constant
Frame rate                               : 23.976 (24000/1001) FPS
Color space                              : YUV
Chroma subsampling                       : 4:2:0
Bit depth                                : 8 bits
Scan type                                : Progressive
Bits/(Pixel*Frame)                       : 0.670
Stream size                              : 33.0 GiB (75%)
Default                                  : Yes
Forced                                   : No

Audio #1
ID                                       : 2
Format                                   : XLL
Format/Info                              : Digital Theater Systems
Commercial name                          : -HD Master Audio
Codec ID                                 : A_DTS
Duration                                 : 2 h 21 min
Bit rate mode                            : Variable
Bit rate                                 : 3 828 kb/s
Channel(s)                               : 6 channels
Channel layout                           : C L R Ls Rs LFE
Sampling rate                            : 48.0 kHz
Frame rate                               : 93.750 FPS (512 SPF)
Bit depth                                : 24 bits
Compression mode                         : Lossless
Stream size                              : 3.79 GiB (9%)
Title                                    : -HD MA 5.1, ~3828 kbps
Language                                 : Ukrainian
Default                                  : Yes
Forced                                   : No

Audio #2
ID                                       : 3
Format                                   :
Format/Info                              : Digital Theater Systems
Codec ID                                 : A_DTS
Duration                                 : 2 h 21 min
Bit rate mode                            : Constant
Bit rate                                 : 1 509 kb/s
Channel(s)                               : 6 channels
Channel layout                           : C L R Ls Rs LFE
Sampling rate                            : 48.0 kHz
Frame rate                               : 93.750 FPS (512 SPF)
Bit depth                                : 24 bits
Compression mode                         : Lossy
Stream size                              : 1.50 GiB (3%)
Title                                    : 5.1, ~1536 kbps
Language                                 : Ukrainian
Default                                  : No
Forced                                   : No

Audio #3
ID                                       : 4
Format                                   : AC-3
Format/Info                              : Audio Coding 3
Commercial name                          : Dolby Digital
Codec ID                                 : A_AC3
Duration                                 : 2 h 21 min
Bit rate mode                            : Constant
Bit rate                                 : 640 kb/s
Channel(s)                               : 6 channels
Channel layout                           : L R C LFE Ls Rs
Sampling rate                            : 48.0 kHz
Frame rate                               : 31.250 FPS (1536 SPF)
Bit depth                                : 16 bits
Compression mode                         : Lossy
Stream size                              : 649 MiB (1%)
Title                                    : 5.1, ~640 kbps
Language                                 : Ukrainian
Service kind                             : Complete Main
Default                                  : No
Forced                                   : No

Audio #4
ID                                       : 5
Format                                   : XLL
Format/Info                              : Digital Theater Systems
Commercial name                          : -HD Master Audio
Codec ID                                 : A_DTS
Duration                                 : 2 h 21 min
Bit rate mode                            : Variable
Bit rate                                 : 4 997 kb/s
Channel(s)                               : 8 channels
Channel layout                           : C L R LFE Lb Rb Lss Rss
Sampling rate                            : 48.0 kHz
Frame rate                               : 93.750 FPS (512 SPF)
Bit depth                                : 24 bits
Compression mode                         : Lossless
Stream size                              : 4.95 GiB (11%)
Title                                    : -HD MA 7.1, ~4997 kbps
Language                                 : English
Default                                  : No
Forced                                   : No

Text #1
ID                                       : 6
Format                                   : PGS
Muxing mode                              : zlib
Codec ID                                 : S_HDMV/PGS
Codec ID/Info                            : Picture based subtitle format used on BDs/HD-DVDs
Duration                                 : 1 h 37 min
Bit rate                                 : 24 b/s
Count of elements                        : 4
Stream size                              : 17.7 KiB (0%)
Title                                    : Forced
Language                                 : English
Default                                  : Yes
Forced                                   : No

Text #2
ID                                       : 7
Format                                   : PGS
Muxing mode                              : zlib
Codec ID                                 : S_HDMV/PGS
Codec ID/Info                            : Picture based subtitle format used on BDs/HD-DVDs
Duration                                 : 2 h 12 min
Bit rate                                 : 27.4 kb/s
Count of elements                        : 2901
Stream size                              : 25.9 MiB (0%)
Title                                    : Full
Language                                 : English
Default                                  : No
Forced                                   : No

Text #3
ID                                       : 8
Format                                   : PGS
Muxing mode                              : zlib
Codec ID                                 : S_HDMV/PGS
Codec ID/Info                            : Picture based subtitle format used on BDs/HD-DVDs
Duration                                 : 2 h 11 min
Bit rate                                 : 24.7 kb/s
Count of elements                        : 3790
Stream size                              : 23.3 MiB (0%)
Title                                    : SDH
Language                                 : English
Default                                  : No
Forced                                   : No

Скріншоти








Джерело: &
Особиста оцінка: 0 - не дивився
Подяка пану Hanway за синхронізацію звуку.






Золотий реліз (завантажене не впливає на рейтинг)
 Трекер:    Зареєстрований   

Завантажити / скачати фільм українською



відео для новачків



 Зареєстрований:   2020-03-21 19:45
 Розмір:   43.93 GB 
 Оцінка фільму:   9.5/10 (Голосів: 18)
   
Anonymous 







2020-03-02 20:20  
Відписав neo3703 і Sando7 , щоб відразу можливо оновлять свої релізи ''Зоряні Війни: Сага / Star Wars: The Complete Saga'' (щоб менше релізів було)

і Jatx_11 720p-mini

IRONHIDE 
VIP


З нами з: 06.08.10
Востаннє: 18.09.20
Повідомлень: 279

2020-03-02 21:19  
Чудесно)
Judgment Day 
Свій


З нами з: 05.08.18
Востаннє: 18.09.20
Повідомлень: 133

2020-03-03 00:29  
Про цей шедевр багато чув. Всі, хто розказували про фільм, то мали негативні враження, але все одно гляну, щоб скласти своє враження. При всіх своїх мінусах, ляпах і умовностях, то оригінальна трилогія дасть фору наступним двом. Як не крути, але оригінал, - це оригінал.
Anonymous 







2020-03-03 00:39  
Judgment Day Я би вже всі передивився , коли на трекері викладуть відразу (Star Wars: The Complete Saga) Тільки у вірній послідовності Happy
Judgment Day 
Свій


З нами з: 05.08.18
Востаннє: 18.09.20
Повідомлень: 133

2020-03-03 01:44  
Anonymous
Дякую за пораду! Wink (1)
Обов'язково скачаю всі фільми і посмакую всю сагу. І, так, обов'язково у правильній хронології.
Ще дуже сподобався Бунтар Один. Якось скептично дивився на факт того, що знімуть такий фільм, який би був у проміжку між 3-м і 4-м епізодами, але фільм мені і дружині дуже засмакував.

Nahalist 
VIP


З нами з: 13.12.13
Востаннє: 18.09.20
Повідомлень: 291

2020-03-03 11:17  
супер, вже чекаю,
а 720-mini це добре
Judgment Day, а мені сподобалось дивитись епізод, де показували, як створили Зірку смерті, тобто Бунтар Один

Judgment Day 
Свій


З нами з: 05.08.18
Востаннє: 18.09.20
Повідомлень: 133

2020-03-03 15:48  
Nahalist
Так мені також дуже сподобався цей фільм. Я сам таке не очікував, що зайде фільм, де не є ядром історії "Сила" і міфологія джедаїв/ситхів.

Спойлер:
Іронічно те, що той фільм вийшов в той самий рік, коли вийшов Загін Самогубців. Бунтар Один більше заслуговував на цю назву. Фанати прохолодно ставились до Бунтар Один, поки він не вийшов, але в результаті таки розтопив серця фанатів, а ось на рахунок Загону Самогубців, то ситуація була діаметрально протилежною...

SYORA 
Новенький


З нами з: 20.07.19
Востаннє: 19.09.20
Повідомлень: 17

2020-03-03 18:14  
Молодці ЛЮДИ. Конкретно розписали.Хто,коли і яку якість зробить. Happy
Чекаю Remux 4K 2160p. Щасти Вам.

ukrnet 
Свій


З нами з: 03.01.14
Востаннє: 18.09.20
Повідомлень: 96

2020-03-03 23:41  
Як фанат з дитинства люблю зоряні війни тільки ця частина повне гів.... даремно витратив свій час і скажу що вся класика краща за сучасні зоряні війни треба було не чіпати і лишити як є навіщо псувати добре що хоч ще не добрались до поліцейської академії!!!!!!!!!!!!!!!!!!!!!!!!!!!!!!!! НЕ РЕКОМЕНДУЮ ДАНУ ЧАСТИНУ ДЛЯ ПЕРЕГЛЯДУ ЩОБ НЕ ТРАВМУВАТИ ПСИХІКУ !!!!!!!!!!!!!!!!!!!!!!!
don pedro 
Попереджень: 1
Попереджень: 1 


З нами з: 29.06.11
Востаннє: 18.09.20
Повідомлень: 17718

2020-03-04 01:01  
Думаю, у майбутньому ми побачимо злу близнючку Рей.
Judgment Day 
Свій


З нами з: 05.08.18
Востаннє: 18.09.20
Повідомлень: 133

2020-03-04 08:44  
don pedro
Знаючи апетит Дісней, то не здивуюсь, якщо вони порушать своє слово і колись повернуться до історії про Скайвокерів, тому відкидати такий сюжет не варто. Зараз прийнято критикувати Дісней, але мені як мінімум сподобалось 2 їхніх фільма по ЗВ, а це: Бунтар Один і 7-й епізод. Так, знаю, фанати із східної Європи з розуму сходять через 7-у частину, але я до неї спокійно ставлюсь. Є самокопіювання, але всім знятий смачно. Як для фундаменту, який би мав підняти настрій фанатам старої школи, і залучити нове покоління до історії, то фільм супер. 8-й фільм, як на мене, був більше схожий на монстра Франкенштейна, але і там були сміливі і круті сюжетні рішення. Не знаю те, хто у цьому винен... Раян Джонсон? Машина під назвою "Дісней"? Складно сказати. Знаю точно, що Раян не розучився знімати кіно, бо його "Ножі наголо" вийшли добротними.

tpolit 
VIP


З нами з: 10.01.15
Востаннє: 17.09.20
Повідомлень: 602

2020-03-04 17:41  
Мрію, щоб якийсь із епізодів зняв Крістофер Нолан.
don pedro 
Попереджень: 1
Попереджень: 1 


З нами з: 29.06.11
Востаннє: 18.09.20
Повідомлень: 17718

2020-03-04 17:56  
Judgment Day
Я найбільше хочу побачити продовження історії про Рей та її близнючку, таємничого і раптово цікавого Фіна та компанію. Головне питання: в якій частині та від кого Рей народить первістка?

Оповідач 
Поважний учасник


З нами з: 13.03.11
Востаннє: 17.09.20
Повідомлень: 214

2020-03-05 20:38  
То буде в наступній трилогії - через 10-ть років.
А зараз,ох я вже не можу дочекатись цього позориська!
Спочатку це було боляче дивитись але тепер щоб чисто поржати обов'язково гляну - куди вже гірше)

f1lia 
Частий відвідувач


З нами з: 25.02.15
Востаннє: 19.09.20
Повідомлень: 34

2020-03-06 15:53  
чекаю 2160...от б всю колекцію в 2160 або Remux вже приготував 500 гіг під це діло
11994455 
Попереджень: 2
Попереджень: 2 


З нами з: 07.04.14
Востаннє: 18.09.20
Повідомлень: 615

2020-03-07 19:07  
А до чого тут близьнючка - Рей і без неї справилась...
Gotmog1 
Свій


З нами з: 05.01.14
Востаннє: 18.09.20
Повідомлень: 58

2020-03-09 10:04  
Judgment Day
А мені трилогія приквел набагато більше подобається

Додано через 1 хвилину 25 секунд:

f1lia
В тебе вінчестер безікнечний чи що?

arikalumoto 
Частий відвідувач


З нами з: 03.03.15
Востаннє: 18.09.20
Повідомлень: 47

2020-03-21 13:31  
Підкажіть будь ласка, коли очікувати 1080р? Хотілося б подивитись на вихідних... чи качати/дивитись 720р?
Anonymous 







2020-03-21 15:06  
arikalumoto написано:
Підкажіть будь ласка, коли очікувати 1080р? Хотілося б подивитись на вихідних... чи качати/дивитись 720р?

сьогодні

bot 
робот


З нами з: 30.09.07
Востаннє: 26.05.05
Повідомлень: 25546

2020-03-21 19:45  
Тему перенесено з Анонси релізів до форуму Фільми в HD


antik_2008

MakRA 
VIP


З нами з: 11.11.18
Востаннє: 19.09.20
Повідомлень: 1112

2020-03-21 20:33  
Дякую. Саме вчасно Happy З понеділка можна розпочинати перегляд всих частнин.
Judgment Day 
Свій


З нами з: 05.08.18
Востаннє: 18.09.20
Повідомлень: 133

2020-03-21 21:14  
MakRA
Аналогічний план Wink (2)

Anonymous 







2020-03-21 22:20  
Так буде добре переглянути відразу , тільки у вірній послідовності
bbuzzy 
Частий відвідувач


З нами з: 18.12.09
Востаннє: 15.09.20
Повідомлень: 46

2020-03-22 15:47  
мені сподобався, оригінально
maxoptimus 
Частий відвідувач


З нами з: 15.05.08
Востаннє: 18.09.20
Повідомлень: 36

2020-03-26 00:25  
можна ввести якесь правило не називати криво торент файли, в мене старий торент клієнт матюкається на пробіли скоріш за все і приходиться спершу скачувати, а потім відкривати торент клієнтом.
і правило б ввели без гнило пробілів глобально. є ж нижнє підкреслення або просто дефіс і т.п.

Ваш часовий пояс: GMT + 2 Години

Нова тема   Відповісти