Полдарк / Poldark (Сезон 1) (2015) 1080p Ukr/Eng | Sub Eng

Нові коментарі

Нова тема   Відповісти
Автор Повідомлення
sergiyko.5 
Забанено
Забанено


З нами з: 25.02.16
Востаннє: 29.10.20
Повідомлень: 3650

2020-03-01 18:34  


Полдарк / Poldark (Сезон 1) (2015) 1080p Ukr/Eng | Sub Eng


Полдарк / Poldark (Сезон 1) (2015) 1080p Ukr/Eng | Sub Eng

Жанр: драма, мелодрама, історичний
Країна: Велика Британія
Кінокомпанія: Mammoth Screen
Режисер: Джосс Егнью, Селлі Апрахаміан, Едвард Базалгетт
Актори: Ейдан Тернер, Елінор Томлінсон, Джек Фартінг, Беті Едні, Трістан Старрок, Люк Норріс, Хейда Рід, Габріелла Уайлд, Піп Торренс, Керолайн Блекістон

Сюжет:
Сюжет серіалу заснований на історії Росса Полдарка, який повертається після війни додому. Тут він дізнається, що батько помер, а на фермі заправляють п'яниці слуги. Крім цього, наречена головного героя побралася з його кузеном, так як думала, що Полдарк помер.




Тривалість: 1 серія: 59:00 (цілком серій: 8 з 8)
Якість:

Відео: кодек: розмір кадру: 1920x1080 бітрейт: 9500 кб/с
Аудіо # 1: мова: українська переклад: двоголосий закадровий кодек: 2.0 бітрейт: 192 кб/с
Озвучення: (Михайло Войчук і Ольга Гриськова)
Аудіо # 2: мова: англійська переклад: оригінал кодек: бітрейт: 384 кб/с
Субтитри: мова: англійська тип: програмні (м'які) формат: *.srt
Перелік серій
епізод 01
епізод 02
епізод 03
епізод 04
епізод 05
епізод 06
епізод 07
епізод 08
Про файл:
General
Unique ID : 194503973412389061468863439286206090657 (0x92541A489019CADBDE486B3F175E4DA1)
Complete name : D:\Documents\Torrents\Rizne\Poldark S01 1080p \Poldark.S01E02.2015.1080p..
Format :
Format version : Version 4
File size : 4.06 GiB
Duration : 57 min 16 s
Overall bit rate : 10.1 Mb/s
Movie name : Poldark S01 by sergiyko
Encoded date : UTC 2020-03-01 16:03:36
Writing application : v42.0.0 ('Overtime') 64-bit
Writing library : libebml v1.3.10 + v1.5.2

Video
ID : 1
Format : AVC
Format/Info : Advanced Video Codec
Format profile : [email protected]
Format settings : CABAC / 4 Ref Frames
Format settings, CABAC : Yes
Format settings, Reference : 4 frames
Codec ID : V_MPEG4/ISO/AVC
Duration : 57 min 16 s
Bit rate : 9 562 kb/s
Width : 1 920 pixels
Height : 1 080 pixels
Display aspect ratio : 16:9
Frame rate mode : Constant
Frame rate : 25.000 FPS
Color space : YUV
Chroma subsampling : 4:2:0
Bit depth : 8 bits
Scan type : Progressive
Bits/(Pixel*Frame) : 0.184
Stream size : 3.83 GiB (94%)
Title : Poldark.S01E02
Writing library : core 157 r2970 5493be8
Encoding settings : cabac=1 / ref=4 / deblock=1:0:0 / analyse=0x3:0x133 / me=umh / subme=10 / psy=1 / psy_rd=1.00:0.00 / mixed_ref=1 / me_range=24 / chroma_me=1 / trellis=2 / 8x8dct=1 / cqm=0 / deadzone=21,11 / fast_pskip=1 / chroma_qp_offset=-2 / threads=24 / lookahead_threads=4 / sliced_threads=0 / nr=0 / decimate=1 / interlaced=0 / bluray_compat=0 / constrained_intra=0 / bframes=8 / b_pyramid=2 / b_adapt=2 / b_bias=0 / direct=3 / weightb=1 / open_gop=0 / weightp=2 / keyint=250 / keyint_min=25 / scenecut=40 / intra_refresh=0 / rc_lookahead=60 / rc=crf / mbtree=1 / crf=19.0 / qcomp=0.60 / qpmin=0 / qpmax=69 / qpstep=4 / ip_ratio=1.40 / aq=1:1.00
Language : English
Default : Yes
Forced : No

Audio #1
ID : 2
Format : AC-3
Format/Info : Audio Coding 3
Commercial name : Dolby Digital
Codec ID : A_AC3
Duration : 57 min 16 s
Bit rate mode : Constant
Bit rate : 192 kb/s
Channel(s) : 2 channels
Channel layout : L R
Sampling rate : 48.0 kHz
Frame rate : 31.250 FPS (1536 SPF)
Compression mode : Lossy
Stream size : 78.7 MiB (2%)
Title : MOV 2ch | UA Культура
Language : Ukrainian
Service kind : Complete Main
Default : Yes
Forced : Yes

Audio #2
ID : 3
Format : AC-3
Format/Info : Audio Coding 3
Commercial name : Dolby Digital
Codec ID : A_AC3
Duration : 57 min 16 s
Bit rate mode : Constant
Bit rate : 384 kb/s
Channel(s) : 2 channels
Channel layout : L R
Sampling rate : 48.0 kHz
Frame rate : 31.250 FPS (1536 SPF)
Compression mode : Lossy
Stream size : 157 MiB (4%)
Title : Original
Language : English
Service kind : Complete Main
Default : No
Forced : No

Text
ID : 4
Format : UTF-8
Codec ID : S_TEXT/UTF8
Codec ID/Info : UTF-8 Plain Text
Duration : 56 min 35 s
Bit rate : 58 b/s
Count of elements : 825
Stream size : 24.4 KiB (0%)
Title : English, SRT
Language : English
Default : No
Forced : No

Menu
00:00:00.000 : uk:Розділ 05
00:14:23.640 : uk:Розділ 06
00:28:58.600 : uk:Розділ 07
00:45:05.040 : uk:Розділ 08
Скріншоти:


Запис звуку/зведення/ріп відео: sergiyko


Бронзовий реліз (на рейтинг впливає 75% завантаженого)
 Трекер:    Зареєстрований   

Завантажити / скачати серіал українською



відео для новачків



 Зареєстрований:   2020-03-07 18:46
 Розмір:   32.23 GB 
 Оцінка серіалу:   9.7/10 (Голосів: 10)
   
masterpiecer 
Відео Гуртом - підтримка та поширення
Відео Гуртом - підтримка та поширення


З нами з: 02.10.09
Востаннє: 26.11.20
Повідомлень: 859

2020-03-02 18:47  
Двоголосий, Войчук і Гриськова
sergiyko.5 
Забанено
Забанено


З нами з: 25.02.16
Востаннє: 29.10.20
Повідомлень: 3650

2020-03-07 18:54  
Додав 6-8 серії. Сезон повний. Приємного перегляду!
taksist 
Попереджень: 1
Попереджень: 1 


З нами з: 10.12.12
Востаннє: 14.10.20
Повідомлень: 552

2020-03-15 03:20  
блискучий перший сезон.
sventill 
Новенький


З нами з: 07.01.10
Востаннє: 18.10.20
Повідомлень: 9

2020-03-15 13:31  
Блискучий серіал!
Cartwright 
VIP


З нами з: 23.03.13
Востаннє: 27.11.20
Повідомлень: 393

2020-05-09 00:41  
Непоганий серіал, шкода тільки, що його цільова аудиторія це домогосподарки. Бо історія про бідну кухарку, якій присунув господар, а потім одружився з нею прямо про це говорить. От якби в серіалі робився більший акцент на бізнесові Полдарка, серіал був би значно кращий. Шкода звичайно, що не знімають подібного роду серіали про започаткування компаній в ті часи, на мою думку, це було б дуже цікаво спостерігати за перипетіями розвитку власного бізнесу на початку промислової революції.

P.S. З огляду на показане архаїчне суспільство в серіалі дивно, що Демельзу не спалили на вогнищі за її руде волосся та зелені очі.
P.P.S. Елізабет топова самка, як для їхнього містечка, не здивований, що за нею бігають всі чоловічі персонажі.

Lucianenko 
Свій


З нами з: 09.07.16
Востаннє: 24.11.20
Повідомлень: 106

2020-10-26 11:04  
Цитата:
P.S. З огляду на показане архаїчне суспільство в серіалі дивно, що Демельзу не спалили на вогнищі за її руде волосся та зелені очі.

У часи коли відбуваються події у серіалі, за таке вже не палили, Демельзі пощастило народитися принаймні на 2 століття пізніше)

Додано через 2 хвилини 35 секунд:

Чудовий, спокійний серіал без впливу толерастів (відсутність темношкірих, геїв, лесбіянок, китайців і т.п.), що вельми порадувало, оскільки передано дух того часу, порядки, традиції, погляди на життя.

Ваш часовий пояс: GMT + 2 Години

Нова тема   Відповісти