VA - Колесо Фортуни ІІ (Слов'янський базар - золота колекція) (1998) [] | Pop

Нові коментарі

Нова тема   Відповісти
Останній раз роздавалося 222Victor (2020-07-05)
Автор Повідомлення
new96 
Новенький


З нами з: 25.02.18
Востаннє: 04.07.20
Повідомлень: 13

2020-03-01 16:25  
VA - Колесо Фортуни ІІ (Слов'янський базар - золота колекція) (1998) [] | Pop

VA - Колесо Фортуни ІІ (Слов'янський базар - золота колекція) (1998) [] | Pop


Стиль: Pop
Видавець: Росток-Рекордс
Пісні:
    01. Позивні (0:14)
    02. В. Зінкевич - Червона рута (4:30)
    03. П. Зібров - Очі (4:05)
    04. Д. Акімов - Калина красная (6:23)
    05. Астрая - Кінозірки (3:19)
    06. Руся - Кияночка (4:42)
    07. Д. Акімов - Прогулочный катерок (3:04)
    08. В. Білоножко - Половина саду (3:26)
    09. О. Добрянська - Едельвейс (3:31)
    10. А. Кудлай - Печаль під хмарами (4:05)
    11. Л. Сандулеса, І. Бобул - Спалені мости (4:10)
    12. М. Поплавський - Першокурсниця (2:47)
    13. Ю. Юрченко - Анжеліка (5:29)
    14. О. Тищенко - Белая вьюга (3:12)
    15. Т. Повалій, О. Глизін - Математика любви (4:14)
    16. EL-Кравчук - Доля (4:59)
    17. С. Ротару - Греховодница-ночь (4:49)
    18. EL-Кравчук - Вогонь (5:17)
    19. П. Зібров - Все в нас (4:08)
    20. Позивні (0:13)

Тривалість: 01:16:37
Мова: українська (1-3, 5-6, 8-13, 16, 18-20), російська (4, 7, 14-15, 17)
Аудіо-кодек:
Бітрейт: 918 кб/с
Джерело: власний CD
Додаткова інформація:
"Звіт EAC"

Exact Audio Copy V1.3 from 2. September 2016

Отчёт EAC об извлечении, выполненном 8. апреля 2019, 18:05

VA / Колесо Фортуни II

Дисковод: ASUS DRW-24D5MT Adapter: 1 ID: 0

Режим чтения : Достоверность
Использование точного потока : Да
Отключение кэша аудио : Да
Использование указателей C2 : Нет

Коррекция смещения при чтении : 6
Способность читать области Lead-in и Lead-out : Нет
Заполнение пропущенных сэмплов тишиной : Да
Удаление блоков с тишиной в начале и конце : Нет
При вычислениях CRC использовались нулевые сэмплы : Да
Интерфейс : Встроенный Win32-интерфейс для Win NT/2000

Выходной формат : Пользовательский кодировщик
Выбранный битрейт : 128 kBit/s
Качество : Высокий
Добавление ID3-тега : Нет
Утилита сжатия : C:\Program Files (x86)\Exact Audio Copy\\.exe
Дополнительные параметры : -V -8 -T "Date=%year%" -T "Genre=%genre%" %source%

TOC извлечённого CD

Трек | Старт | Длительность | Начальный сектор | Конечный сектор
---------------------------------------------------------------------
1 | 0:00.00 | 0:14.00 | 0 | 1049
2 | 0:14.00 | 4:30.00 | 1050 | 21299
3 | 4:44.00 | 4:05.00 | 21300 | 39674
4 | 8:49.00 | 6:23.00 | 39675 | 68399
5 | 15:12.00 | 3:19.00 | 68400 | 83324
6 | 18:31.00 | 4:42.00 | 83325 | 104474
7 | 23:13.00 | 3:04.00 | 104475 | 118274
8 | 26:17.00 | 3:26.00 | 118275 | 133724
9 | 29:43.00 | 3:31.00 | 133725 | 149549
10 | 33:14.00 | 4:05.00 | 149550 | 167924
11 | 37:19.00 | 4:10.00 | 167925 | 186674
12 | 41:29.00 | 2:47.00 | 186675 | 199199
13 | 44:16.00 | 5:29.00 | 199200 | 223874
14 | 49:45.00 | 3:12.00 | 223875 | 238274
15 | 52:57.00 | 4:14.00 | 238275 | 257324
16 | 57:11.00 | 4:59.00 | 257325 | 279749
17 | 62:10.00 | 4:49.00 | 279750 | 301424
18 | 66:59.00 | 5:17.00 | 301425 | 325199
19 | 72:16.00 | 4:08.00 | 325200 | 343799
20 | 76:24.00 | 0:13.00 | 343800 | 344774

Характеристики диапазона извлечения и сообщения об ошибках

Выбранный диапазон

Имя файла D:\Фильмы\VA - Колесо Фортуни II (1998)\VA - Колесо Фортуни II.wav

Пиковый уровень 100.0 %
Скорость извлечения 8.4 X
Качество диапазона 100.0 %
CRC теста 227EC7AB
CRC копии 227EC7AB
Копирование... OK

Ошибок не произошло

AccurateRip: сводка

Трек 1 отсутствует в базе данных
Трек 2 отсутствует в базе данных
Трек 3 отсутствует в базе данных
Трек 4 отсутствует в базе данных
Трек 5 отсутствует в базе данных
Трек 6 отсутствует в базе данных
Трек 7 отсутствует в базе данных
Трек 8 отсутствует в базе данных
Трек 9 отсутствует в базе данных
Трек 10 отсутствует в базе данных
Трек 11 отсутствует в базе данных
Трек 12 отсутствует в базе данных
Трек 13 отсутствует в базе данных
Трек 14 отсутствует в базе данных
Трек 15 отсутствует в базе данных
Трек 16 отсутствует в базе данных
Трек 17 отсутствует в базе данных
Трек 18 отсутствует в базе данных
Трек 19 отсутствует в базе данных
Трек 20 отсутствует в базе данных

Ни одного трека нет в базе AccurateRip

Конец отчёта

==== Контрольная сумма отчёта 40AFAB1BA67CE670DAA16CF26542874769E24FD79E18738D3C11B389D38088E4 ====


Якщо Ви справді бажаєте підтримати українське - після прослуховування, якщо музика вам сподобалась, придбайте ліцензійний диск. Підтримаймо вітчизняних виконавців!


Срібний реліз (на рейтинг впливає 50% завантаженого)
 Трекер:    Зареєстрований   

Завантажити / скачати українську музику



відео для новачків



 Зареєстрований:   2020-03-01 16:25
 Розмір:   503 MB 
 Оцінка музики:   6.4/10 (Голосів: 5)
   
daschut 
Новенький


З нами з: 02.02.19
Востаннє: 05.07.20
Повідомлень: 1

2020-05-15 16:43  
Встаньте будь ласка на роздачу.
ярий тверезенник 
VIP


З нами з: 29.01.12
Востаннє: 04.07.20
Повідомлень: 2552

2020-05-16 08:54  
може хтось знає, хто ця дівчинка зображена на обкладинці цього диску ?
Ваш часовий пояс: GMT + 2 Години

Нова тема   Відповісти