Клинок Безсмертного / Mugen no Juunin - Immortal / Blade of the Immortal (Серії 01-14 з 24) (2019) 720p Ukr/Jap | Sub Ukr

Нові коментарі

Нова тема   Відповісти
Автор Повідомлення
Gwean 
Відео Гуртом - фільмокрай
Відео Гуртом - фільмокрай


З нами з: 28.07.12
Востаннє: 03.04.20
Повідомлень: 595

2020-03-01 15:44  
Клинок Безсмертного / Mugen no Juunin - Immortal / Blade of the Immortal (Серії 01-14 з 24) (2019) 720p Ukr/Jap | Sub Ukr

Клинок Безсмертного / Mugen no Juunin - Immortal / Blade of the Immortal (Серії 01-14 з 24) (2019) 720p Ukr/Jap | Sub Ukr


Жанр: анімація, драма, історичний, пригодницький, екшн, психологічний, сейнен
Країна: Японія



6.95 (82 голосів)

Кінокомпанія: LIDEN FILMS
Режисер: Хіроші Хамасакі
Ролі озвучують: Кенджіроу Цуда, Нодзому Сасакі, Аяне Сакура, Ейджі Ханава та інші

Сюжет:
Манджі, вбивця самураїв, був проклятий і став безсмертним. Щоб позбутися прокляття, він має вбити тисячу лиходіїв. У своїй подорожі він зустрічає юну дівчину Рін і обіцяє допомогти їй помститися за смерть її сім’ї. Манджі мандрує разом з нею і продовжує рухатися до власної мети.


Тривалість: 1 серія: ~24хв (цілком серій: 24)
Перелік серій
1. Зустріч
2. Зачаток
3. Душевні муки
4. Перепона для Рін
5. Пісня про хробаків
6. Захищені пагінці
7. Зловісна тінь
8. Муґай-рю
9. Збір
10. Тварина
11. Ранні заморозки
12. Остання кров
13. Сутінки
14. Покращення
Якість:
Відео:
кодек:
розмір кадру: 1280 х 720
бітрейт: 2358 кб/с

Аудіо # 1:
мова: українська
переклад: двоголосий закадровий
кодек: 2.0
бітрейт: 224 кб/с

Аудіо # 2:
мова: японська
переклад: оригінал
кодек: Е- 2.0
бітрейт: 224 кб/с

Джерело озвучення:


Субтитри:
мова: українська
тип: програмні (м'які)
формат: *.
Info
General
Unique ID : 215036093784089116257920303478946821940 (0xA1C671F99035245A9C5B863C01127734)
Complete name : R:\Mugen no Juunin - Immortal () [720]\Mugen no Juunin - Immortal - 01 [ 720p] Ukr DVO SUB.
Format :
Format version : Version 4
File size : 481 MiB
Duration : 23 min 55 s
Overall bit rate : 2 807 kb/s
Encoded date : UTC 2020-02-29 22:06:33
Writing application : v7.0.0 ('Where We Going') 32bit built on Jun 9 2014 15:08:34
Writing library : libebml v1.3.0 + v1.4.1
Cover : Yes
Attachments : cover.jpg / KabelCTT_Medium__bold.ttf / KabelCTT_Medium__regular.ttf / KABELM.ttf

Video
ID : 1
Format : AVC
Format/Info : Advanced Video Codec
Format profile : [email protected]
Format settings : CABAC / 4 Ref Frames
Format settings, CABAC : Yes
Format settings, Reference : 4 frames
Codec ID : V_MPEG4/ISO/AVC
Duration : 23 min 54 s
Bit rate mode : Constant
Bit rate : 2 358 kb/s
Nominal bit rate : 6 000 kb/s
Width : 1 280 pixels
Height : 720 pixels
Display aspect ratio : 16:9
Frame rate mode : Constant
Frame rate : 23.976 (24000/1001) FPS
Color space : YUV
Chroma subsampling : 4:2:0
Bit depth : 8 bits
Scan type : Progressive
Bits/(Pixel*Frame) : 0.107
Stream size : 403 MiB (84%)
Title : 01
Language : Japanese
Default : Yes
Forced : Yes
Color range : Limited
Color primaries : BT.709
Transfer characteristics : BT.709
Matrix coefficients : BT.709

Audio #1
ID : 2
Format : AC-3
Format/Info : Audio Coding 3
Commercial name : Dolby Digital
Codec ID : A_AC3
Duration : 23 min 55 s
Bit rate mode : Constant
Bit rate : 224 kb/s
Channel(s) : 2 channels
Channel layout : L R
Sampling rate : 48.0 kHz
Frame rate : 31.250 FPS (1536 SPF)
Compression mode : Lossy
Stream size : 38.3 MiB (8%)
Title : DVO від Gwean & Maslinka
Language : Ukrainian
Service kind : Complete Main
Default : Yes
Forced : Yes

Audio #2
ID : 3
Format : E-AC-3
Format/Info : Enhanced AC-3
Commercial name : Dolby Digital Plus
Codec ID : A_EAC3
Duration : 23 min 54 s
Bit rate mode : Constant
Bit rate : 224 kb/s
Channel(s) : 2 channels
Channel layout : L R
Sampling rate : 48.0 kHz
Frame rate : 31.250 FPS (1536 SPF)
Compression mode : Lossy
Stream size : 38.3 MiB (8%)
Title : оригінальна доріжка
Language : Japanese
Service kind : Complete Main
Default : No
Forced : No

Text #1
ID : 4
Format :
Codec ID : S_TEXT/
Codec ID/Info : Advanced Sub Station Alpha
Duration : 23 min 50 s
Bit rate : 3 b/s
Count of elements : 6
Compression mode : Lossless
Stream size : 709 Bytes (0%)
Title : написи HappySubs(UA)
Language : Ukrainian
Default : Yes
Forced : Yes

Text #2
ID : 5
Format :
Codec ID : S_TEXT/
Codec ID/Info : Advanced Sub Station Alpha
Duration : 23 min 50 s
Bit rate : 122 b/s
Count of elements : 251
Compression mode : Lossless
Stream size : 21.4 KiB (0%)
Title : HappySubs(UA)
Language : Ukrainian
Default : No
Forced : No
Скріншоти





Озвучення:
Gwean, Maslinka
Переклад: Fanat22012
Редакція: Грицько

Джерело:
Особиста оцінка: 9 - давно не бачив настільки якісне кіно


Авторський реліз (завантажувати можна без реєстрації)
 Трекер:    Зареєстрований   

Завантажити / скачати аніме українською



відео для новачків



 Зареєстрований:   2020-03-30 15:53
 Розмір:   6.28 GB 
 Оцінка аніме:   9.8/10 (Голосів: 4)
   
Gwean 
Відео Гуртом - фільмокрай
Відео Гуртом - фільмокрай


З нами з: 28.07.12
Востаннє: 03.04.20
Повідомлень: 595

2020-03-07 00:23  
Додано 3 та 4 серії!
Gwean 
Відео Гуртом - фільмокрай
Відео Гуртом - фільмокрай


З нами з: 28.07.12
Востаннє: 03.04.20
Повідомлень: 595

2020-03-09 18:01  
Додано 5 серію!
Gwean 
Відео Гуртом - фільмокрай
Відео Гуртом - фільмокрай


З нами з: 28.07.12
Востаннє: 03.04.20
Повідомлень: 595

2020-03-10 23:10  
Додано 6 серію!
Gwean 
Відео Гуртом - фільмокрай
Відео Гуртом - фільмокрай


З нами з: 28.07.12
Востаннє: 03.04.20
Повідомлень: 595

2020-03-12 00:40  
Додано 7 серію!
Gwean 
Відео Гуртом - фільмокрай
Відео Гуртом - фільмокрай


З нами з: 28.07.12
Востаннє: 03.04.20
Повідомлень: 595

2020-03-12 23:37  
Додано 8 серію!
Gwean 
Відео Гуртом - фільмокрай
Відео Гуртом - фільмокрай


З нами з: 28.07.12
Востаннє: 03.04.20
Повідомлень: 595

2020-03-19 13:37  
Додано 9-11 серії!
Gwean 
Відео Гуртом - фільмокрай
Відео Гуртом - фільмокрай


З нами з: 28.07.12
Востаннє: 03.04.20
Повідомлень: 595

2020-03-20 18:04  
Додано 12 серію!
Gwean 
Відео Гуртом - фільмокрай
Відео Гуртом - фільмокрай


З нами з: 28.07.12
Востаннє: 03.04.20
Повідомлень: 595

2020-03-26 18:57  
Додано 13 серію!
Gwean 
Відео Гуртом - фільмокрай
Відео Гуртом - фільмокрай


З нами з: 28.07.12
Востаннє: 03.04.20
Повідомлень: 595

2020-03-30 15:54  
Додано 14 серію!
Ваш часовий пояс: GMT + 2 Години

Нова тема   Відповісти