Тед-мандрівник і таємниця царя Мідаса / Tadeo Jones 2 El secreto del Rey Midas (2017) AVC Ukr/Spa | Sub Spa

Нові коментарі

Нова тема   Відповісти
Автор Повідомлення
sergiyko.5 
Забанено
Забанено


З нами з: 25.02.16
Востаннє: 29.10.20
Повідомлень: 3651

2020-03-01 13:23  


Тед-мандрівник і таємниця царя Мідаса / Tadeo Jones 2 El secreto del Rey Midas (2017) AVC Ukr/Spa | Sub Spa

Тед-мандрівник і таємниця царя Мідаса / Tadeo Jones 2 El secreto del Rey Midas (2017) AVC Ukr/Spa | Sub Spa

Жанр: пригоди, комедія
Країна: Іспанія
Режисер: Давід Алонсо, Енріке Гато
Ролі озвучують: Адріана Угарте, Оскар Барберан, Мішель Дженнер, Луїс Посада, Хосе Карбачо

Сюжет:
Тед, не самий спритніший дослідник і мандрівник, і його чудні друзі, серед яких справжня мумія і тямущий пес Джеф, вирушають на розшуки злісного багача Джека Рекхема, що викрав Сару. Кохана Теда виявила, де сховані скарби легендарного царя Мідаса, і лиходій сподівається їх дістати. Але Тед і його команда повинні зруйнувати плани безпринципного багача і звільнити Сару!




Тривалість: 01:24:59
Якість:

Відео: кодек: розмір кадру: 1120 х 476 бітрейт: 2300 кб/с
Аудіо # 1: мова: українська переклад: багатоголосий закадровий кодек: 2.0 бітрейт: 192 кб/с
Озвучення:
Аудіо # 2: мова: іспанська переклад: оригінал кодек: 5.1 бітрейт: 448 кб/с
Субтитри: мова: іспанська тип: програмні (м'які) формат: *.srt
Про файл:
General
Unique ID : 662336836377898391689394628920689475 (0x7F8FBA2E4F8123FF2415667EDD4343)
Complete name : D:\Documents\Torrents\Rizne\Tadeo Jones 2.El secreto del Rey Midas.2017..
Format :
Format version : Version 4
File size : 1.72 GiB
Duration : 1 h 24 min
Overall bit rate : 2 901 kb/s
Movie name : Tadeo Jones 2 El secreto del Rey Midas 2017 by sergiyko
Encoded date : UTC 2020-03-01 11:20:52
Writing application : v42.0.0 ('Overtime') 64-bit
Writing library : libebml v1.3.10 + v1.5.2

Video
ID : 1
Format : AVC
Format/Info : Advanced Video Codec
Format profile : [email protected]
Format settings : CABAC / 11 Ref Frames
Format settings, CABAC : Yes
Format settings, Reference : 11 frames
Codec ID : V_MPEG4/ISO/AVC
Duration : 1 h 24 min
Bit rate : 2 259 kb/s
Width : 1 120 pixels
Height : 476 pixels
Display aspect ratio : 2.35:1
Frame rate mode : Constant
Frame rate : 23.976 (24000/1001) FPS
Color space : YUV
Chroma subsampling : 4:2:0
Bit depth : 8 bits
Scan type : Progressive
Bits/(Pixel*Frame) : 0.177
Stream size : 1.34 GiB (78%)
Title : Tadeo Jones 2: El secreto del Rey Midas 2017
Writing library : core 152 r2851kMod ba24899
Encoding settings : cabac=1 / ref=11 / deblock=1:-2:-1 / analyse=0x3:0x113 / me=umh / subme=10 / psy=1 / fade_compensate=0.00 / psy_rd=1.03:0.19 / mixed_ref=1 / me_range=32 / chroma_me=1 / trellis=2 / 8x8dct=1 / cqm=0 / deadzone=21,11 / fast_pskip=0 / chroma_qp_offset=-3 / threads=6 / lookahead_threads=1 / sliced_threads=0 / nr=0 / decimate=1 / interlaced=0 / bluray_compat=0 / constrained_intra=0 / bframes=14 / b_pyramid=2 / b_adapt=2 / b_bias=0 / direct=1 / weightb=1 / open_gop=0 / weightp=2 / keyint=250 / keyint_min=23 / scenecut=40 / intra_refresh=0 / rc_lookahead=60 / rc=crf / mbtree=0 / crf=17.7700 / qcomp=0.60 / qpmin=0 / qpmax=69 / qpstep=4 / vbv_maxrate=50000 / vbv_bufsize=62500 / crf_max=0.0 / nal_hrd=none / filler=0 / ip_ratio=1.40 / pb_ratio=1.30 / aq=3:0.85
Language : Spanish
Default : Yes
Forced : No

Audio #1
ID : 2
Format : AC-3
Format/Info : Audio Coding 3
Commercial name : Dolby Digital
Codec ID : A_AC3
Duration : 1 h 24 min
Bit rate mode : Constant
Bit rate : 192 kb/s
Channel(s) : 2 channels
Channel layout : L R
Sampling rate : 48.0 kHz
Frame rate : 31.250 FPS (1536 SPF)
Compression mode : Lossy
Stream size : 117 MiB (7%)
Title : MOV 2ch | ТЕТ
Language : Ukrainian
Service kind : Complete Main
Default : Yes
Forced : Yes

Audio #2
ID : 3
Format : AC-3
Format/Info : Audio Coding 3
Commercial name : Dolby Digital
Codec ID : A_AC3
Duration : 1 h 24 min
Bit rate mode : Constant
Bit rate : 448 kb/s
Channel(s) : 6 channels
Channel layout : L R C LFE Ls Rs
Sampling rate : 48.0 kHz
Frame rate : 31.250 FPS (1536 SPF)
Compression mode : Lossy
Stream size : 272 MiB (15%)
Title : Original
Language : Spanish
Service kind : Complete Main
Default : No
Forced : No

Text
ID : 4
Format : UTF-8
Codec ID : S_TEXT/UTF8
Codec ID/Info : UTF-8 Plain Text
Duration : 1 h 17 min
Bit rate : 52 b/s
Count of elements : 965
Stream size : 29.8 KiB (0%)
Title : Full
Language : Spanish
Default : No
Forced : No

Menu
00:00:00.000 : en:Chapter 1
00:04:23.304 : en:Chapter 2
00:10:52.485 : en:Chapter 3
00:17:06.984 : en:Chapter 4
00:22:32.351 : en:Chapter 5
00:27:33.151 : en:Chapter 6
00:33:01.396 : en:Chapter 7
00:36:20.761 : en:Chapter 8
00:43:11.380 : en:Chapter 9
00:50:25.772 : en:Chapter 10
00:55:26.906 : en:Chapter 11
00:59:23.226 : en:Chapter 12
01:05:02.857 : en:Chapter 13
01:14:30.716 : en:Chapter 14
01:17:35.275 : en:Chapter 15
Скріншоти:


Запис: xslim
Зведення: sergiyko


 Трекер:    Зареєстрований   

Завантажити / скачати мультфільм українською



відео для новачків



 Зареєстрований:   2020-03-01 13:23
 Розмір:   1.72 GB 
 Оцінка мультфільму:   9.9/10 (Голосів: 16)
   
myshkommp 
Новенький


З нами з: 07.03.15
Востаннє: 30.10.20
Повідомлень: 4

2020-03-14 17:06  
Дякую за мультфільм. Підскажіть, де можна знайти першу частину (2012 року) пригод теда Джонса українською.
Ваш часовий пояс: GMT + 2 Години

Нова тема   Відповісти