Левина варта / The Lion Guard (Сезон 3) (2019) 1080p Ukr/Eng

Нові коментарі

Нова тема   Відповісти
Автор Повідомлення
sergiyko.5 
Забанено
Забанено


З нами з: 25.02.16
Востаннє: 29.10.20
Повідомлень: 3648

2020-03-01 13:43  
Всі одноіменні релізи на трекері

Левина варта / The Lion Guard (Сезон 3) (2019) 1080p Ukr/Eng


Левина варта / The Lion Guard (Сезон 3) (2019) 1080p Ukr/Eng

Жанр: пригоди, комедія
Країна: США
Кінокомпанія: Disney Television Animation, Lioness Productions
Режисер: Хауі Паркінс

Сюжет:
Продовження історії Сімби, головного героя мультфільму «Король Лев». Левеня на ім'я Кайон – друге дитинча Сімби й Нали, молодший брат Кіари. Кайон несподівано для себе опановує Рик Предків – здатність дітей королівської родини, завдяки якій стають лідерами Левиної Варти. Левина Варта – загін із 5 левів, що захищають землі прайду і коло життя. Але Кайон вирішує зібрати різних звірів, у здібностях і вірності яких упевнений.




Тривалість: 22:35 серія (загалом 19 серій з 19)
Якість:

Відео: кодек: розмір кадру: 1920 х 1080 бітрейт: 4900 кб/с
Аудіо 1: мова: українська переклад: професійний дубльований кодек: 2.0 бітрейт: 192 кб/с
Джерело озвучення:
Аудіо 2: мова: англійська переклад: оригінал кодек: 2.0 бітрейт: 128 кб/с
Перелік серій:
01 Battle for the Pride Lands
02 The Harmattan
03 The Accidental Avalanche
04 Ghost of the Mountain
05 Marsh of Mystery
06 Dragon Island
07 Journey of Memories
08.The Race to Tuliza
09.Mama Binturong
10.Friends to the End
11.The Tree of Life
12.The River of Patience
13.Little Old Ginterbong
14.Poa the Destroyer
15.Long Live the Queen
16.The Lake of Reflection
17.Triumph of the Roar
18.Journey to the Pride Lands
19.Return to the Pride Lands
Про файл:
General
Unique ID : 29657718951130847860403491449379138898 (0x164FDE704C19F3C1FD1495EEDF76AD52)
Complete name : D:\Documents\Torrents\Rizne\The Lion Guard S03 1080p \S03E02.The Harmattan.1080p..
Format :
Format version : Version 4
File size : 850 MiB
Duration : 22 min 31 s
Overall bit rate : 5 276 kb/s
Movie name : The Lion Guard S03 1080p by sergiyko
Encoded date : UTC 2020-03-01 10:34:10
Writing application : v42.0.0 ('Overtime') 64-bit
Writing library : libebml v1.3.10 + v1.5.2

Video
ID : 1
Format : AVC
Format/Info : Advanced Video Codec
Format profile : [email protected]
Format settings : CABAC / 2 Ref Frames
Format settings, CABAC : Yes
Format settings, Reference : 2 frames
Codec ID : V_MPEG4/ISO/AVC
Duration : 22 min 31 s
Bit rate : 4 920 kb/s
Width : 1 912 pixels
Original width : 1 920 pixels
Height : 1 088 pixels
Original height : 1 080 pixels
Display aspect ratio : 16:9
Original display aspect rat : 16:9
Frame rate mode : Constant
Frame rate : 23.976 (23976/1000) FPS
Color space : YUV
Chroma subsampling : 4:2:0
Bit depth : 8 bits
Scan type : Progressive
Bits/(Pixel*Frame) : 0.099
Stream size : 798 MiB (94%)
Title : S03E02.The Harmattan
Writing library : core 148 r2579M 73ae2d1
Encoding settings : cabac=1 / ref=2 / deblock=1:0:0 / analyse=0x3:0x113 / me=hex / subme=2 / psy=1 / psy_rd=1.00:0.00 / mixed_ref=0 / me_range=16 / chroma_me=1 / trellis=0 / 8x8dct=1 / cqm=0 / deadzone=21,11 / fast_pskip=1 / chroma_qp_offset=0 / threads=4 / lookahead_threads=1 / sliced_threads=0 / nr=250 / decimate=1 / interlaced=0 / bluray_compat=0 / stitchable=1 / constrained_intra=0 / bframes=0 / weightp=1 / keyint=250 / keyint_min=25 / scenecut=40 / intra_refresh=0 / rc_lookahead=10 / rc=2pass / mbtree=1 / bitrate=4920 / ratetol=1.0 / qcomp=0.60 / qpmin=5 / qpmax=69 / qpstep=4 / cplxblur=20.0 / qblur=0.5 / ip_ratio=1.40 / aq=1:1.00
Language : English
Default : Yes
Forced : No
Color range : Limited
Color primaries : BT.709
Transfer characteristics : BT.709
Matrix coefficients : BT.709

Audio #1
ID : 2
Format : AC-3
Format/Info : Audio Coding 3
Commercial name : Dolby Digital
Codec ID : A_AC3
Duration : 22 min 31 s
Bit rate mode : Constant
Bit rate : 192 kb/s
Channel(s) : 2 channels
Channel layout : L R
Sampling rate : 48.0 kHz
Frame rate : 31.250 FPS (1536 SPF)
Compression mode : Lossy
Stream size : 30.9 MiB (4%)
Title : DUB 2ch | ПлюсПлюс
Language : Ukrainian
Service kind : Complete Main
Default : Yes
Forced : Yes

Audio #2
ID : 3
Format : LC SBR
Format/Info : Advanced Audio Codec Low Complexity with Spectral Band Replication
Commercial name : HE-
Format settings : Implicit
Codec ID : A_AAC-2
Duration : 22 min 31 s
Bit rate : 127 kb/s
Channel(s) : 2 channels
Channel layout : L R
Sampling rate : 48.0 kHz
Frame rate : 23.438 FPS (2048 SPF)
Compression mode : Lossy
Stream size : 20.4 MiB (2%)
Language : English
Default : No
Forced : No
Скріншоти:


Запис/зведення: sergiyko


Бронзовий реліз (на рейтинг впливає 75% завантаженого)
 Трекер:    Зареєстрований   

Завантажити / скачати мультфільм українською



відео для новачків



 Зареєстрований:   2020-03-15 13:41
 Розмір:   16.88 GB 
 Оцінка мультсеріалу:   10/10 (Голосів: 12)
   
56348gop 
Свій


З нами з: 03.12.16
Востаннє: 27.03.21
Повідомлень: 90

2020-03-01 14:07  
Підкажіть будь ласка, хто дублює головних героїв?
sergiyko.5 
Забанено
Забанено


З нами з: 25.02.16
Востаннє: 29.10.20
Повідомлень: 3648

2020-03-01 14:12  
Вибачте, я не в темі. І мені не важливо. Я роблю реліз і розповсюджую, мені цього достатньо.
olimpian1 
VIP


З нами з: 19.10.13
Востаннє: 09.04.21
Повідомлень: 293

2020-03-01 16:31  
Велике дякую! Дітиська вже потирають ручки))
uasoft 
Новенький


З нами з: 03.12.16
Востаннє: 10.04.21
Повідомлень: 19

2020-03-01 23:21  
Змініть будь ласка назву 4 серії на "Ghost of the Mountain"
sergiyko.5 
Забанено
Забанено


З нами з: 25.02.16
Востаннє: 29.10.20
Повідомлень: 3648

2020-03-02 10:11  
Виправив назву 4, додав 7 серію.
dora2006 
Новенький


З нами з: 26.12.15
Востаннє: 28.03.21
Повідомлень: 3

2020-03-14 21:23  
Велике дякую!
А шостої серії не буде ?

sergiyko.5 
Забанено
Забанено


З нами з: 25.02.16
Востаннє: 29.10.20
Повідомлень: 3648

2020-03-15 13:45  
Додав нові серії. Станом на зараз інформація про третій сезон це 19 серій.
Світодар 
Новенький


З нами з: 08.01.11
Востаннє: 09.04.21
Повідомлень: 7

2020-03-15 14:16  
Нумо, товариство, підключайтеся до роздачі!
alexandr_b 
Частий відвідувач


З нами з: 11.03.09
Востаннє: 07.04.21
Повідомлень: 49

2020-09-20 21:36  
Величезне попередження!
S03E15.Long Live the Queen.. - обговорюються теми смерті на прикладі одного лева. Вся серія - це смерть і похорон старого лева!
Я б не радив її включати дитині!

Якщо ви просто її пропустите - сюжет особливо не постраждає! Бо вся серія - просто похорон.

Ваш часовий пояс: GMT + 2 Години

Нова тема   Відповісти