Мізері / Misery (1990) 1080p H.265 3xUkr/Eng | Sub Eng

Нові коментарі

Нова тема   Відповісти
Автор Повідомлення
Anonymous 







2020-03-01 12:49  
Мізері / Misery (1990) 1080p H.265 3xUkr/Eng | Sub Eng

Мізері / Misery (1990) 1080p H.265 3xUkr/Eng | Sub Eng


Жанр: драма, трилер
Країна: США
Кінокомпанія: Castle Rock Entertainment, Nelson Entertainment
Режисер: Роб Райнер / Rob Reiner
Актори: Джеймс Каан / James Caan, Кеті Бейтс / Kathy Bates, Френсіс Стернгейґен / Frances Sternhagen, Річард Фарнсуорт / Richard Farnsworth, Лорен Беколл / Lauren Bacall, Ґрем Джарвіс / Graham Jarvis та інші.

Сюжет:
Пол Шелдон не пам'ятає, як під час моторошної хуртовини його машину занесло і він опинився на межі загибелі. Не пам'ятає він і того, що якась таємнича жінка відшукала його і врятувала. Єдине, що може згадати письменник, - те, що він опинився в будинку Енні Вілкс, яка просто обожнює його книги і не хоче з ним розлучатися. Вона зламала Полу ноги, щоб той розпочав роботу над книгою. Чоловік фактично стає домашньою твариною ненормальною дівчини.

Розлючений на все своє життя і на те, що навчився писати книги, Пол намагається втекти з дому ненормальної. Але зробити це не так вже просто ... Божевільна фанатка не збирається відпускати найдорожчу їй людину!

Тривалість: 01:47:23
Якість:

Відео:
кодек: H.265 (HEVC)
розмір кадру: 1920 x 1038
бітрейт: 8 401 кб/с
бітова глибина: 10 біт

Увага! Перед завантаженням переконайтесь, що ваш пристрій відтворення (та/або ПЗ) підтримує H.265 (HEVC)

Аудіо # 1:
мова: українська
переклад: професійний дубльований
кодек: AC-3 2.0
бітрейт: 192 кб/с

Аудіо # 2:
мова: українська
переклад: багатоголосий закадровий
кодек: AC-3 2.0
бітрейт: 192 кб/с

Аудіо # 3:
мова: українська
переклад: двоголосий закадровий
кодек: AC-3 2.0
бітрейт: 192 кб/с

Аудіо # 4:
мова: англійська
переклад: оригінал
кодек: AC-3 5.1
бітрейт: 640 кб/с

Субтитри # 1: (Full)
мова: англійська
тип: програмні (м'які)
формат: *.srt


Info
Код:
General
Unique ID                                : 58851831121991775991917758892719590748 (0x2C46734C5D6C7EC8C9B8BC434F7DCD5C)
Complete name                            : Misery (1990) 1080p H.265 [3xUKR_ENG] [Hurtom].
Format                                   :
Format version                           : Version 4
File size                                : 7.22 GiB
Duration                                 : 1 h 47 min
Overall bit rate                         : 9 620 kb/s
Movie name                               : Мізері / Misery (1990)
Encoded date                             : UTC 2020-03-01 09:46:06
Writing application                      : v20.0.0 ('I Am The Sun') 64-bit
Writing library                          : libebml v1.3.5 + v1.4.8
Cover                                    : Yes
Attachments                              : cover.jpg

Video
ID                                       : 1
Format                                   : HEVC
Format/Info                              : High Efficiency Video Coding
Format profile                           : Main [email protected]@High
Codec ID                                 : V_MPEGH/ISO/HEVC
Duration                                 : 1 h 47 min
Bit rate                                 : 8 401 kb/s
Width                                    : 1 920 pixels
Height                                   : 1 038 pixels
Display aspect ratio                     : 1.85:1
Frame rate mode                          : Constant
Frame rate                               : 23.976 (23976/1000) FPS
Original frame rate                      : 23.976 (24000/1001) FPS
Color space                              : YUV
Chroma subsampling                       : 4:2:0
Bit depth                                : 10 bits
Bits/(Pixel*Frame)                       : 0.176
Stream size                              : 6.30 GiB (87%)
Title                                    : Мізері / Misery (1990)
Writing library                          : x265 3.2.1+1-b5c86a64bbbe:[Windows][MSVC 1923][64 bit] 10bit
Encoding settings                        : cpuid=1111039 / frame-threads=3 / numa-pools=12 / wpp / no-pmode / no-pme / no-psnr / no-ssim / log-level=2 / input-csp=1 / input-res=1920x1038 / interlace=0 / total-frames=150060 / level-idc=41 / high-tier=1 / uhd-bd=0 / ref=5 / no-allow-non-conformance / no-repeat-headers / annexb / no-aud / no-hrd / info / hash=0 / no-temporal-layers / open-gop / min-keyint=23 / keyint=240 / gop-lookahead=0 / bframes=10 / b-adapt=2 / b-pyramid / bframe-bias=0 / rc-lookahead=60 / lookahead-slices=4 / scenecut=40 / radl=0 / no-splice / no-intra-refresh / ctu=32 / min-cu-size=8 / rect / amp / max-tu-size=32 / tu-inter-depth=4 / tu-intra-depth=4 / limit-tu=1 / rdoq-level=2 / dynamic-rd=0.00 / no-ssim-rd / signhide / no-tskip / nr-intra=0 / nr-inter=0 / no-constrained-intra / no-strong-intra-smoothing / max-merge=4 / limit-refs=2 / limit-modes / me=3 / subme=7 / merange=57 / temporal-mvp / no-hme / weightp / weightb / no-analyze-src-pics / deblock=-3:-3 / no-sao / no-sao-non-deblock / rd=6 / selective-sao=0 / no-early-skip / no-rskip / no-fast-intra / no-tskip-fast / no-cu-lossless / no-b-intra / no-splitrd-skip / rdpenalty=0 / psy-rd=2.00 / psy-rdoq=1.00 / no-rd-refine / no-lossless / cbqpoffs=0 / crqpoffs=0 / rc=crf / crf=20.0 / qcomp=0.65 / qpstep=4 / stats-write=0 / stats-read=0 / vbv-maxrate=50000 / vbv-bufsize=50000 / vbv-init=0.9 / crf-max=0.0 / crf-min=0.0 / ipratio=1.40 / pbratio=1.30 / aq-mode=1 / aq-strength=1.00 / no-cutree / zone-count=0 / no-strict-cbr / qg-size=32 / no-rc-grain / qpmax=69 / qpmin=0 / no-const-vbv / sar=1 / overscan=0 / videoformat=5 / range=0 / colorprim=1 / transfer=1 / colormatrix=1 / chromaloc=0 / display-window=0 / cll=0,0 / min-luma=0 / max-luma=1023 / log2-max-poc-lsb=8 / vui-timing-info / vui-hrd-info / slices=1 / no-opt-qp-pps / no-opt-ref-list-length-pps / no-multi-pass-opt-rps / scenecut-bias=0.05 / no-opt-cu-delta-qp / no-aq-motion / no-hdr / no-hdr-opt / no-dhdr10-opt / no-idr-recovery-sei / analysis-reuse-level=5 / scale-factor=0 / refine-intra=0 / refine-inter=0 / refine-mv=1 / refine-ctu-distortion=0 / no-limit-sao / ctu-info=0 / no-lowpass-dct / refine-analysis-type=0 / copy-pic=1 / max-ausize-factor=1.0 / no-dynamic-refine / no-single-sei / no-hevc-aq / no-svt / no-field / qp-adaptation-range=1.00
Default                                  : Yes
Forced                                   : No
Color range                              : Limited
Color primaries                          : BT.709
Transfer characteristics                 : BT.709
Matrix coefficients                      : BT.709

Audio #1
ID                                       : 2
Format                                   : AC-3
Format/Info                              : Audio Coding 3
Commercial name                          : Dolby Digital
Codec ID                                 : A_AC3
Duration                                 : 1 h 47 min
Bit rate mode                            : Constant
Bit rate                                 : 192 kb/s
Channel(s)                               : 2 channels
Channel layout                           : L R
Sampling rate                            : 48.0 kHz
Frame rate                               : 31.250 FPS (1536 SPF)
Compression mode                         : Lossy
Stream size                              : 147 MiB (2%)
Title                                    : / 2.0 Ch / 192 kbps / ПД / NLO
Language                                 : Ukrainian
Service kind                             : Complete Main
Default                                  : Yes
Forced                                   : Yes

Audio #2
ID                                       : 3
Format                                   : AC-3
Format/Info                              : Audio Coding 3
Commercial name                          : Dolby Digital
Codec ID                                 : A_AC3
Duration                                 : 1 h 47 min
Bit rate mode                            : Constant
Bit rate                                 : 192 kb/s
Channel(s)                               : 2 channels
Channel layout                           : L R
Sampling rate                            : 48.0 kHz
Frame rate                               : 31.250 FPS (1536 SPF)
Compression mode                         : Lossy
Stream size                              : 147 MiB (2%)
Title                                    : / 2.0 Ch / 192 kbps / БЗ / AMC
Language                                 : Ukrainian
Service kind                             : Complete Main
Default                                  : No
Forced                                   : No

Audio #3
ID                                       : 4
Format                                   : AC-3
Format/Info                              : Audio Coding 3
Commercial name                          : Dolby Digital
Codec ID                                 : A_AC3
Duration                                 : 1 h 47 min
Bit rate mode                            : Constant
Bit rate                                 : 192 kb/s
Channel(s)                               : 2 channels
Channel layout                           : L R
Sampling rate                            : 48.0 kHz
Frame rate                               : 31.250 FPS (1536 SPF)
Compression mode                         : Lossy
Stream size                              : 147 MiB (2%)
Title                                    : / 2.0 Ch / 192 kbps / ДЗ / 1+1
Language                                 : Ukrainian
Service kind                             : Complete Main
Default                                  : No
Forced                                   : No

Audio #4
ID                                       : 5
Format                                   : AC-3
Format/Info                              : Audio Coding 3
Commercial name                          : Dolby Digital
Codec ID                                 : A_AC3
Duration                                 : 1 h 47 min
Bit rate mode                            : Constant
Bit rate                                 : 640 kb/s
Channel(s)                               : 6 channels
Channel layout                           : L R C LFE Ls Rs
Sampling rate                            : 48.0 kHz
Frame rate                               : 31.250 FPS (1536 SPF)
Compression mode                         : Lossy
Stream size                              : 492 MiB (7%)
Title                                    : / 5.1 Ch / 640 kbps / Original
Language                                 : English
Service kind                             : Complete Main
Default                                  : No
Forced                                   : No

Text
ID                                       : 6
Format                                   : UTF-8
Codec ID                                 : S_TEXT/UTF8
Codec ID/Info                            : UTF-8 Plain Text
Duration                                 : 1 h 42 min
Bit rate                                 : 47 b/s
Count of elements                        : 853
Stream size                              : 35.4 KiB (0%)
Title                                    : Full
Language                                 : English
Default                                  : No
Forced                                   : No

Menu
00:00:00.000                             : en:Main Titles / The Crash
00:04:39.529                             : en:I'll Take Care of You
00:08:11.073                             : en:Bed-Ridden
00:09:18.391                             : en:My Legs
00:10:34.175                             : en:Paul Is Missing
00:12:44.180                             : en:Close Shave
00:15:46.445                             : en:Investigation
00:16:45.838                             : en:The Swearing
00:19:05.853                             : en:What's Hidden in the Snow?
00:21:47.180                             : en:Misery Has Arrived
00:24:10.407                             : en:Misery, the Pig
00:25:57.430                             : en:Inside Annie's Head
00:27:52.837                             : en:Rage
00:32:16.184                             : en:Let It Burn!
00:40:11.200                             : en:Misery's Return
00:49:28.632                             : en:Home Alone
00:57:19.978                             : en:Discovery
01:00:29.834                             : en:My Way
01:02:46.220                             : en:Jump for Joy
01:06:16.138                             : en:Dinner for Two
01:09:48.893                             : en:Choose Your Weapon
01:17:27.351                             : en:The Sledge Hammer
01:23:05.605                             : en:A Visitor
01:33:10.126                             : en:Goodbye Sheriff
01:36:10.598                             : en:The Last Chapter
01:39:18.327                             : en:Face Off
01:41:11.148                             : en:The Witch Is Dead
01:42:31.478                             : en:It's a Rave / End Titles
Світлини




Джерело: &
Особиста оцінка: 0 - не дивився


Срібний реліз (на рейтинг впливає 50% завантаженого)
 Трекер:    Зареєстрований   

Завантажити / скачати фільм українською



відео для новачків



 Зареєстрований:   2020-03-01 12:49
 Розмір:   7.22 GB 
 Оцінка фільму:   9.6/10 (Голосів: 7)
   
Інші релізи
   Мізері / Misery (1990) 3xUkr/Eng taraskill1  4 / 0   2.29 GB   2019-08-09 10:06 
   Мізері / Misery (1990) Remux 1080p 3xUkr/Eng | Sub Eng kryk-v.ya.  2 / 0   26.5 GB   2019-05-24 19:10 
   Мізері / Misery (1990) AVC 3xUkr/Eng | Sub Eng Sando7  5 / 0   2.43 GB   2019-05-24 12:30 
   Мізері / Misery (1990) [MP4, 640x] apvAltisimo  0 / 0   692 MB   2015-08-05 12:41 
   Мізері / Misery (1990) 1080p Ukr/Eng | Sub Eng ninenine  5 / 0   7.7 GB   2014-11-10 20:28 
vkrav4uk 
Свій


З нами з: 04.03.12
Востаннє: 21.10.20
Повідомлень: 71

2020-03-01 16:16  
Обожнюю цей фільм!
Ваш часовий пояс: GMT + 2 Години

Нова тема   Відповісти