Чи потрібно летіти на Марс? / The Big Think: Should We Go to Mars? (2017) 360p Eng | Sub Ukr

Нові коментарі

Нова тема   Відповісти
Автор Повідомлення
kittkatt 
Частий відвідувач


З нами з: 23.11.19
Востаннє: 07.04.21
Повідомлень: 40

2020-03-01 12:35  
Чи потрібно летіти на Марс? / The Big Think: Should We Go to Mars? (2017) 360p Eng | Sub Ukr
Жанр: документальний, науково-популярний
Країна: Велика Британія
https://www.imdb.com/title/tt7947120/
Кінокомпанія: BBC Studios
Режисер: Алекс Гемінґвей
Актори: Кевін Фонг, Гелен Шарман, Рікардо Наварро, Ґері Бентон, Вільям Паловскі, Джефф Серро, Ліббі Джексон, Девід Дінджес, Адам Стелцнер, Емі Росс, Майкл Карр, Керолайн Катц (оповідач)
Сюжет:
Перший фільм з нового циклу «Великі роздуми» (The Big Think).
Доктор Кевін Фонг разом з групою експертів аналізує технологічні, фінансові та етичні проблеми польотів та можливого проживання людей на Марсі.


Тривалість: 00:58:58
Відео:
кодек: H.265
розмір кадру: 640x360
бітрейт: 400 Кбіт/сек
Аудіо:
мова: англійська
переклад: оригінал
кодек: HE-AACv2
бітрейт: 28 Кбіт/сек
Субтитри:
мова: українська (переклад wolesj)
тип: програмні (м'які)
формат: *.
Субтитри:
мова: англійська
тип: програмні (м'які)
формат: *.srt
snapshots








Info
Format:
Format version: Version 4
File size: 182 MiB
Duration: 58 min 58 s
Overall bit rate: 431 kb/s
Encoded date: UTC 2020-02-27 19:37:28
Writing application: v43.0.0 ('The Quartermaster') 64-bit
Writing library: libebml v1.3.10 + v1.5.2

*** Video
ID: 1
Format: HEVC
Format/Info: High Efficiency Video Coding
Format profile: Format [email protected]@Main
Codec ID: V_MPEGH/ISO/HEVC
Duration: 58 min 58 s
Bit rate: 401 kb/s
Width: 640 pixels
Height: 360 pixels
Display aspect ratio: 16:9
Frame rate mode: Constant
Frame rate: 25.000 FPS
Color space: YUV
Chroma subsampling: 4:2:0
Bit depth: 12 bits
Bits/(Pixel*Frame): 0.070
Stream size: 169 MiB (93%)
Writing library: x265 3.2.1+1-b5c86a64bbbe:[Windows][GCC 9.2.0][64 bit] 12bit
Language: English
Default: Yes
Forced: No
Color range: Limited
Color primaries: BT.709
Transfer characteristics: BT.709
Matrix coefficients: BT.709

*** Audio
ID: 2
Format: LC SBR PS
Format/Info: Advanced Audio Codec Low Complexity with Spectral Band Replication and Parametric Stereo
Commercial name: HE-AACv2
Format settings: Implicit / Explicit
Codec ID: A_AAC-2
Duration: 58 min 58 s
Bit rate: 28.0 kb/s
Channel(s): 1 channel
Channel(s)_Original: 2 channels
ChannelLayout_Original: C
Sampling rate: 48.0 kHz
Frame rate: 23.438 FPS (2048 SPF)
Compression mode: Lossy
Delay relative to video: 43 ms
Stream size: 11.8 MiB (6%)
Language: English
Default: Yes
Forced: No

*** Text #1
ID: 3
Format:
Muxing mode: zlib
Codec ID: S_TEXT/
Codec ID/Info: Advanced Sub Station Alpha
Duration: 58 min 35 s
Bit rate: 208 b/s
Count of elements: 990
Compression mode: Lossless
Stream size: 89.6 KiB (0%)
Title: українська
Language: Ukrainian
Default: Yes
Forced: Yes

*** Text #2
ID: 4
Format: UTF-8
Muxing mode: zlib
Codec ID: S_TEXT/UTF8
Codec ID/Info: UTF-8 Plain Text
Duration: 58 min 30 s
Bit rate: 96 b/s
Count of elements: 870
Stream size: 41.3 KiB (0%)
Title: English
Language: English
Default: No
Forced: No


 Трекер:    Зареєстрований   

Завантажити / скачати торрент



відео для новачків



 Зареєстрований:   2020-03-01 12:35
 Розмір:   182 MB 
 Оцінка:   10/10 (Голосів: 2)
   
futbol35 
Новенький


З нами з: 05.12.13
Востаннє: 10.04.21
Повідомлень: 1

2020-03-30 17:48  
Дякую
Ваш часовий пояс: GMT + 2 Години

Нова тема   Відповісти