Symphony Orchestra, Andrej Bielow / Skoryk - Complete Violin Concertos, Vol. 1,2 (2020) [] | Classical

Нові коментарі

Нова тема   Відповісти
Автор Повідомлення
kolpavel 
VIP


З нами з: 04.05.14
Востаннє: 27.02.21
Повідомлень: 1375

2020-02-29 18:30  
Volodymyr Sirenko, Ukraine National Symphony Orchestra, Andrej Bielow / Skoryk - Complete Violin Concertos, Vol. 1, 2 (2020) [] | Classical

Symphony Orchestra, Andrej Bielow / Skoryk - Complete Violin Concertos, Vol. 1,2 (2020) [] | Classical



Стиль: Classical
Країна, місто: Україна, Київ
Сайти: Офіційний сайт
Видавець: Naxos
Виконавці:
Національний заслужений академічний симфонічний оркестр України.
Andrej Bielow - скрипка.
Vol. 1

Symphony Orchestra, Andrej Bielow / Skoryk - Complete Violin Concertos, Vol. 1,2 (2020) [] | Classical


Треклист:


    Skoryk, Myroslav (b.1938) :

    01. Violin Concerto No. 1 16:12
    02. Violin Concerto No. 2 14:22
    03. Violin Concerto No. 3 12:52
    04. Violin Concerto No. 4 16:00

Тривалість: 00:59:26
Мова: інструментальні композиції
Аудіо-кодек:
Бітрейт: 2580 - 2713 кб/с
Джерело: трекер
Додаткова інформація:
лог якостi:
foobar2000 1.5.2 / Dynamic Range Meter 1.1.1
log date: 2020-02-28 20:06:03

--------------------------------------------------------------------------------
Analyzed: Andrej Bielow, National Symphony Orchestra of Ukraine & Volodymyr Sirenko / Skoryk: Complete Violin Concertos, Vol. 1
--------------------------------------------------------------------------------

DR Peak RMS Duration Track
--------------------------------------------------------------------------------
DR15 -1.46 dB -22.73 dB 16:13 01-Violin Concerto No. 1
DR13 -1.45 dB -20.31 dB 14:23 02-Violin Concerto No. 2
DR12 -1.45 dB -19.62 dB 12:53 03-Violin Concerto No. 3
DR13 -1.46 dB -19.99 dB 16:00 04-Violin Concerto No. 4
--------------------------------------------------------------------------------

Number of tracks: 4
Official DR value: DR13

Samplerate: 96000 Hz
Channels: 2
Bits per sample: 24
Bitrate: 2675 kbps
Codec:
================================================================================
Vol. 2

Symphony Orchestra, Andrej Bielow / Skoryk - Complete Violin Concertos, Vol. 1,2 (2020) [] | Classical


Треклист:

Skoryk, Myroslav (b.1938) :

01. Violin Concerto No. 5 14:55
02. Violin Concerto No. 6 14:57
03. Violin Concerto No. 7 15:04
04. Violin Concerto No. 8 'Allusion to Chopin' 17:26
05. Violin Concerto No. 9 14:14

Тривалість: 01:16:36
Мова: інструментальні композиції
Аудіо-кодек:
Бітрейт: 470 - 576 кб/с
Джерело: трекер
Додаткова інформація:
лог якостi:

foobar2000 1.3.7 / Dynamic Range Meter 1.1.1
log date: 2020-05-19 17:04:39

--------------------------------------------------------------------------------
Analyzed: Andrej Bielow, National Symphony Orchestra of Ukraine & Volodymyr Sirenko / Skoryk: Complete Violin Concertos, Vol. 2
--------------------------------------------------------------------------------

DR Peak RMS Duration Track
--------------------------------------------------------------------------------
DR14 -1.46 dB -21.41 dB 14:55 01-Violin Concerto No. 5
DR11 -1.36 dB -18.98 dB 14:57 02-Violin Concerto No. 6
DR14 -1.40 dB -20.83 dB 15:04 03-Violin Concerto No. 7
DR16 -1.46 dB -22.61 dB 17:27 04-Violin Concerto No. 8 "Allusion to Chopin"
DR11 -1.45 dB -18.68 dB 14:15 05-Violin Concerto No. 9
--------------------------------------------------------------------------------

Number of tracks: 5
Official DR value: DR13

Samplerate: 96000 Hz
Channels: 2
Bits per sample: 24
Bitrate: 4616 kbps
Codec:
================================================================================
Тривалість: 00:59:26 + 01:16:36
Мова: інструментальні композиції
Аудіо-кодек:
Бітрейт: 470 - 2713 кб/с
Джерело: трекер

Якщо Ви справді бажаєте підтримати українське - після прослуховування, якщо музика вам сподобалась, придбайте ліцензійний диск. Підтримаймо вітчизняних виконавців!


Срібний реліз (на рейтинг впливає 50% завантаженого)
 Трекер:    Зареєстрований   

Завантажити / скачати українську музику



відео для новачків



 Зареєстрований:   2020-06-03 16:06
 Розмір:   3.59 GB 
 Оцінка музики:   10/10 (Голосів: 2)
   
Ваш часовий пояс: GMT + 2 Години

Нова тема   Відповісти