Шпигуни під прикриттям / Spies in Disguise (2019) Remux 1080p Ukr/Eng | Sub Ukr/Eng

Нові коментарі

Нова тема   Відповісти
Автор Повідомлення
Anonymous 







2020-02-29 18:06  


Шпигуни під прикриттям / Spies in Disguise (2019) Remux 1080p Ukr/Eng | Sub Ukr/Eng






Альтернативні постери


Шпигуни під прикриттям / Spies in Disguise (2019) Remux 1080p Ukr/Eng | Sub Ukr/Eng



Жанр: анімація, екшн, пригодницький
Країна: США





Кінокомпанія: Blue Sky Studios, Chernin Entertainment, Twentieth Century Fox Animation
Режисер: Трой Квон, Нік Бруно
Ролі озвучують: Вілл Сміт, Том Голланд, Рашіда Джонс, Карен Ґіллан, Рейчел Броснахен, Бен Мендельсон, Масі Ока


Сюжет:
Супершпигуна Ленса Стерлінга всі вважають найкращим у цій професії. Чому? Та просто тому що його всі знають, але ніхто не може зловити. Але такого успіху не було би без супергаджетів, які для нього створює молодий учений Волтер Беккет. Один із них мало не кожен день рятує світ від усяких небезпек, а інший завжди залишається в тіні, у власному світі винаходів. Його нове відкриття має перевернути світ шпигунства – це спеціальна сироватка, яка перетворює людей у різних істот. Наприклад, у голубів, адже вони такі непримітні. Ленс Стерлінг випадково випив таку сироватку – і став птахом. На кону доля всього світу, а шпигунові потрібно звикнути до нового тіла та до нових здібностей...



Тривалість: 01:41:51
Якість: Remux 1080p


Відео:
кодек:
розмір кадру: 1920x1080
бітрейт: ~24000 кб/с

Аудіо # 1:
мова: українська
переклад: професійний дубльований
кодек: 5.1
бітрейт: 384 кб/с

Аудіо # 2:
мова: українська
переклад: професійний дубльований
кодек: 2.0
бітрейт: 192 кб/с

Аудіо # 3:
мова: англійська
переклад: оригінал
кодек: -HD Master 7.1
бітрейт: 4541 кб/с

Субтитри # 1 - 2: (Forced, Full)
мова: українська
тип: програмні (м'які)
формат: *.srt

Субтитри # 3 - 5: (Forced, Full, SDH)
мова: англійська
тип: програмні (м'які)
формат: *.srt

Info
Код:
General
Complete name                            : Spies in Disguise (2019) Remux 1080p [ukr, eng] [Video_Hurtom].
Format                                   :
Format version                           : Version 4
File size                                : 20.7 GiB
Duration                                 : 1 h 41 min
Overall bit rate mode                    : Variable
Overall bit rate                         : 29.1 Mb/s
Movie name                               : Шпигуни під прикриттям / Spies in Disguise (2019)
Encoded date                             : UTC 2020-05-20 03:58:51
Writing application                      : v30.1.0 ('Forever And More') 64-bit
Writing library                          : libebml v1.3.6 + v1.4.9
Cover                                    : Yes
Attachments                              : cover.jpg

Video
ID                                       : 1
Format                                   : AVC
Format/Info                              : Advanced Video Codec
Format profile                           : [email protected]
Format settings                          : CABAC / 4 Ref Frames
Format settings, CABAC                   : Yes
Format settings, RefFrames               : 4 frames
Codec ID                                 : V_MPEG4/ISO/AVC
Duration                                 : 1 h 41 min
Bit rate mode                            : Variable
Bit rate                                 : 24.0 Mb/s
Maximum bit rate                         : 34.0 Mb/s
Width                                    : 1 920 pixels
Height                                   : 1 080 pixels
Display aspect ratio                     : 16:9
Frame rate mode                          : Constant
Frame rate                               : 23.976 (23976/1000) FPS
Original frame rate                      : 23.976 (24000/1001) FPS
Color space                              : YUV
Chroma subsampling                       : 4:2:0
Bit depth                                : 8 bits
Scan type                                : Progressive
Bits/(Pixel*Frame)                       : 0.482
Stream size                              : 17.1 GiB (82%)
Language                                 : English
Default                                  : Yes
Forced                                   : No

Audio #1
ID                                       : 2
Format                                   : AC-3
Format/Info                              : Audio Coding 3
Commercial name                          : Dolby Digital
Codec ID                                 : A_AC3
Duration                                 : 1 h 41 min
Bit rate mode                            : Constant
Bit rate                                 : 384 kb/s
Channel(s)                               : 6 channels
Channel layout                           : L R C LFE Ls Rs
Sampling rate                            : 48.0 kHz
Frame rate                               : 31.250 FPS (1536 SPF)
Bit depth                                : 16 bits
Compression mode                         : Lossy
Stream size                              : 280 MiB (1%)
Title                                    : 5.1 | 384
Language                                 : Ukrainian
Service kind                             : Complete Main
Default                                  : Yes
Forced                                   : No

Audio #2
ID                                       : 3
Format                                   : AC-3
Format/Info                              : Audio Coding 3
Commercial name                          : Dolby Digital
Codec ID                                 : A_AC3
Duration                                 : 1 h 41 min
Bit rate mode                            : Constant
Bit rate                                 : 192 kb/s
Channel(s)                               : 2 channels
Channel layout                           : L R
Sampling rate                            : 48.0 kHz
Frame rate                               : 31.250 FPS (1536 SPF)
Bit depth                                : 16 bits
Compression mode                         : Lossy
Stream size                              : 140 MiB (1%)
Title                                    : 2.0 | 192
Language                                 : Ukrainian
Service kind                             : Complete Main
Default                                  : No
Forced                                   : No

Audio #3
ID                                       : 4
Format                                   : ES XLL
Format/Info                              : Digital Theater Systems
Commercial name                          : -HD Master Audio
Codec ID                                 : A_DTS
Duration                                 : 1 h 41 min
Bit rate mode                            : Variable
Bit rate                                 : 4 541 kb/s
Channel(s)                               : 8 channels
Channel layout                           : C L R Ls Rs LFE Lb Rb
Sampling rate                            : 48.0 kHz
Frame rate                               : 93.750 FPS (512 SPF)
Bit depth                                : 24 bits
Compression mode                         : Lossless
Stream size                              : 3.23 GiB (16%)
Title                                    : -HD MA 7.1 | 4541
Language                                 : English
Default                                  : No
Forced                                   : No

Text #1
ID                                       : 5
Format                                   : UTF-8
Codec ID                                 : S_TEXT/UTF8
Codec ID/Info                            : UTF-8 Plain Text
Duration                                 : 1 h 40 min
Bit rate                                 : 3 b/s
Count of elements                        : 51
Stream size                              : 2.31 KiB (0%)
Title                                    : Forced
Language                                 : Ukrainian
Default                                  : Yes
Forced                                   : No

Text #2
ID                                       : 6
Format                                   : UTF-8
Codec ID                                 : S_TEXT/UTF8
Codec ID/Info                            : UTF-8 Plain Text
Duration                                 : 1 h 40 min
Bit rate                                 : 98 b/s
Count of elements                        : 1456
Stream size                              : 72.2 KiB (0%)
Title                                    : Full
Language                                 : Ukrainian
Default                                  : No
Forced                                   : No

Text #3
ID                                       : 7
Format                                   : UTF-8
Codec ID                                 : S_TEXT/UTF8
Codec ID/Info                            : UTF-8 Plain Text
Duration                                 : 1 h 18 min
Bit rate                                 : 0 b/s
Count of elements                        : 6
Stream size                              : 142 Bytes (0%)
Title                                    : Forced
Language                                 : English
Default                                  : No
Forced                                   : No

Text #4
ID                                       : 8
Format                                   : UTF-8
Codec ID                                 : S_TEXT/UTF8
Codec ID/Info                            : UTF-8 Plain Text
Duration                                 : 1 h 31 min
Bit rate                                 : 60 b/s
Count of elements                        : 1573
Stream size                              : 40.7 KiB (0%)
Title                                    : Full
Language                                 : English
Default                                  : No
Forced                                   : No

Text #5
ID                                       : 9
Format                                   : UTF-8
Codec ID                                 : S_TEXT/UTF8
Codec ID/Info                            : UTF-8 Plain Text
Duration                                 : 1 h 41 min
Bit rate                                 : 67 b/s
Count of elements                        : 1905
Stream size                              : 50.0 KiB (0%)
Title                                    : SDH
Language                                 : English
Default                                  : No
Forced                                   : No

Menu
00:00:00.000                             : en:Chapter 01
00:04:09.499                             : en:Chapter 02
00:06:54.497                             : en:Chapter 03
00:11:53.838                             : en:Chapter 04
00:15:31.013                             : en:Chapter 05
00:20:35.484                             : en:Chapter 06
00:23:20.857                             : en:Chapter 07
00:26:42.434                             : en:Chapter 08
00:30:59.524                             : en:Chapter 09
00:36:06.581                             : en:Chapter 10
00:41:34.950                             : en:Chapter 11
00:45:41.947                             : en:Chapter 12
00:49:57.786                             : en:Chapter 13
00:53:58.902                             : en:Chapter 14
00:56:34.307                             : en:Chapter 15
01:00:06.769                             : en:Chapter 16
01:08:46.914                             : en:Chapter 17
01:12:51.784                             : en:Chapter 18
01:17:34.274                             : en:Chapter 19
01:20:18.939                             : en:Chapter 20
01:23:19.077                             : en:Chapter 21
01:26:05.243                             : en:Chapter 22
01:29:47.173                             : en:Chapter 23
01:33:08.874                             : en:Chapter 24

Скріншоти




Джерело: &
Особиста оцінка: 9 - давно не бачив настільки якісне кіно






Золотий реліз (завантажене не впливає на рейтинг)
 Трекер:    Зареєстрований   

Завантажити / скачати мультфільм українською



відео для новачків



 Зареєстрований:   2020-05-20 06:57
 Розмір:   20.7 GB 
 Оцінка мультфільму:   9.7/10 (Голосів: 23)
   
SYORA 
Новенький


З нами з: 20.07.19
Востаннє: 30.11.20
Повідомлень: 21

2020-03-10 17:51  
Чудово. Вже в режимі очікування Remux.
Anonymous 







2020-03-13 07:37  
Реліз готовий!
Cerguk 
Свій


З нами з: 30.09.09
Востаннє: 30.11.20
Повідомлень: 110

2020-03-14 13:32  
Чудовий мульт, без вагань рекомендую ! Донька дивилась не відриваючись, а її далеко не кожен мульт може протримати перед екраном і до середини. Та й дорослим знайдеться немало моментів щоб посміятись.
O_omarella! 
Поважний учасник


З нами з: 14.06.13
Востаннє: 28.10.20
Повідомлень: 197

2020-03-22 11:03  
Мультік бомба! Дуже крутий! Дякую за реліз!
Anonymous 







2020-05-20 06:58  
Торент файл оновлено. Додано 5.1
ivovka44 
Новенький


З нами з: 21.07.14
Востаннє: 30.11.20
Повідомлень: 3

2020-05-22 08:05  
Автор стань на роздачу, будь ласка.
ivovka44 
Новенький


З нами з: 21.07.14
Востаннє: 30.11.20
Повідомлень: 3

2020-05-22 14:28  
Дякую!
ktw14 
Поважний учасник


З нами з: 24.03.11
Востаннє: 30.11.20
Повідомлень: 178

2020-06-15 12:34  
Цікавий мультик. Динамічний і цікавий сюжет. Було дуже цікаво дивитися не тільки дитині. але і мені. Рекомендую!
Ваш часовий пояс: GMT + 2 Години

Нова тема   Відповісти