Кі і Піл (Сезони 1-5) / Key & Peele (Seasons 1-5) (2012-2015) / 1080p Ukr/Eng | sub Eng

Нові коментарі

Нова тема   Відповісти
Останній раз роздавалося Neytreenor (2020-12-04)
Автор Повідомлення
Anonymous 







2020-02-29 17:45  
Кі і Піл (Сезони 1-5) / Key & Peele (Seasons 1-5) (2012-2015) / 1080p Ukr/Eng | sub Eng

Кі і Піл (Сезони 1-5) / Key & Peele (Seasons 1-5) (2012-2015) / 1080p Ukr/Eng | sub Eng


Жанр: комедія, скетч-шоу
Країна: США



Кінокомпанія: Cindylou, Monkeypaw Productions, Martel & Roberts Productions
Режисер: Кіґан-Майкл Кі (Keegan-Michael Key), Джордан Піл (Jordan Peele)
Актори: Кіґан-Майкл Кі (Keegan-Michael Key), Джордан Піл (Jordan Peele) та інші

Сюжет:
Комедійний серіал американського виробництва за участю відомих коміків Майкла Кі і Джордана Піла. Кожен випуск починається з виступу комедіантів перед аудиторією і закінчується короткою відеозамальовкою. Іронічний і пізнавальний скетч-серіал про соціальні теми, етнічні стереотипи, політичні інтриги, міжособові, а часом і міжрасові проблеми. Головні коміки Кі та Піл запевняють нас, що вони - мулати і що саме це дозволяє їм жартувати майже на будь-які теми.


Тривалість: 1 серія: ~21 хв. (цілком серій: 32 з 53)
Перелік серій
Сезон 1:
01) Bitch
02) Black Hawk Up
05) Dueling Magical Negroes
07) Soul Food

Сезон 2:
03) Puppy Dog Ice-T
04) I'm Retired
05) Bone Thugs-n-Homeless
06) Michael Jackson Halloween
07) Victory
09) Gangsta Standoff

Сезон 3:
01) Les Mis
02) East/West Bowl Rap
03) Slap-
05) Obama Shutdown
06) Cunnilingus Class
07) Sexy Vampires
08) High on Potenuse
09) Tackle & Grapple
10) Black Ice
11) The Power of Wings
12) East/West Bowl 2
13) Pussy on the Chainwax

Сезон 4:
04) Slap-: In Recovery
05) Concussion Quarterback
06) Scariest Movie Ever

Сезон 5:
02) Airplane Showdown
03) A Cappella Club
04) Severed Head Showcase
07) MC Mom
08) Hollywood Sequel Doctor
09) The 420 Special
11) The End
Решту епізодів канал поки що не показав.


Якість: (сезони 1-3) / (сезони 4-5)
Відео:
кодек:
розмір кадру: 1920 х 1080 / 1916 x 1076
бітрейт: ~9 мб/с / ~5 мб/с

Аудіо # 1:
мова: українська
переклад: багатоголосий закадровий | Paramount Comedy
кодек: 2.0
бітрейт: 192 кб/с

Аудіо # 2:
мова: англійська
переклад: оригінал
кодек: 5.1 / 2.0
бітрейт: 640 кб/с / ~150 кб/с

Субтитри:
мова: англійська
тип: програмні (м'які)
формат: *.srt
Info
Сезон 1
General
Unique ID : 89442562860451129164628995796191176288 (0x434A02D1A774A5EFE4E5DB7702E06660)
Complete name : F:\Support\series\Key and Peele [, , 1080p, Ukr, Eng]\Key and Peele. s01e01. Bitch [, 1080p, Ukr, Eng].
Format :
Format version : Version 4
File size : 1.48 GiB
Duration : 21 min 36 s
Overall bit rate : 9 832 kb/s
Encoded date : UTC 2020-02-22 18:20:34
Writing application : v42.0.0 ('Overtime') 64-bit
Writing library : libebml v1.3.10 + v1.5.2

Video
ID : 1
Format : AVC
Format/Info : Advanced Video Codec
Format profile : [email protected]
Format settings : CABAC / 4 Ref Frames
Format settings, CABAC : Yes
Format settings, Reference : 4 frames
Codec ID : V_MPEG4/ISO/AVC
Duration : 21 min 36 s
Bit rate : 8 998 kb/s
Width : 1 920 pixels
Height : 1 080 pixels
Display aspect ratio : 16:9
Frame rate mode : Constant
Frame rate : 23.976 (24000/1001) FPS
Color space : YUV
Chroma subsampling : 4:2:0
Bit depth : 8 bits
Scan type : Progressive
Bits/(Pixel*Frame) : 0.181
Stream size : 1.36 GiB (92%)
Writing library : core 125 r2208 d9d2288
Encoding settings : cabac=1 / ref=4 / deblock=1:0:0 / analyse=0x3:0x113 / me=umh / subme=8 / psy=1 / psy_rd=1.00:0.00 / mixed_ref=1 / me_range=16 / chroma_me=1 / trellis=1 / 8x8dct=1 / cqm=0 / deadzone=21,11 / fast_pskip=1 / chroma_qp_offset=-2 / threads=12 / lookahead_threads=2 / sliced_threads=0 / nr=0 / decimate=1 / interlaced=0 / bluray_compat=0 / constrained_intra=0 / bframes=3 / b_pyramid=2 / b_adapt=2 / b_bias=0 / direct=3 / weightb=1 / open_gop=0 / weightp=2 / keyint=240 / keyint_min=24 / scenecut=40 / intra_refresh=0 / rc_lookahead=50 / rc=2pass / mbtree=1 / bitrate=8998 / ratetol=1.0 / qcomp=0.60 / qpmin=0 / qpmax=69 / qpstep=4 / cplxblur=20.0 / qblur=0.5 / ip_ratio=1.40 / aq=1:1.00
Language : English
Default : Yes
Forced : No

Audio #1
ID : 2
Format : AC-3
Format/Info : Audio Coding 3
Commercial name : Dolby Digital
Codec ID : A_AC3
Duration : 21 min 36 s
Bit rate mode : Constant
Bit rate : 192 kb/s
Channel(s) : 2 channels
Channel layout : L R
Sampling rate : 48.0 kHz
Frame rate : 31.250 FPS (1536 SPF)
Compression mode : Lossy
Stream size : 29.7 MiB (2%)
Title : Paramount Comedy
Language : Ukrainian
Service kind : Complete Main
Default : Yes
Forced : No

Audio #2
ID : 3
Format : AC-3
Format/Info : Audio Coding 3
Commercial name : Dolby Digital
Codec ID : A_AC3
Duration : 21 min 36 s
Bit rate mode : Constant
Bit rate : 640 kb/s
Channel(s) : 6 channels
Channel layout : L R C LFE Ls Rs
Sampling rate : 48.0 kHz
Frame rate : 31.250 FPS (1536 SPF)
Compression mode : Lossy
Stream size : 98.9 MiB (7%)
Language : English
Service kind : Complete Main
Default : No
Forced : No

Text
ID : 4
Format : UTF-8
Codec ID : S_TEXT/UTF8
Codec ID/Info : UTF-8 Plain Text
Duration : 21 min 32 s
Bit rate : 109 b/s
Count of elements : 521
Stream size : 17.3 KiB (0%)
Language : English
Default : No
Forced : No

Menu
00:00:00.000 : en:00:00:00.000
00:06:49.951 : en:00:06:49.951
00:12:01.971 : en:00:12:01.971
00:16:12.221 : en:00:16:12.221
00:21:20.279 : en:00:21:20.279
Сезон 2
General
Unique ID : 228573516588581058651672198867811577426 (0xABF5A8734A361CDB6E85B9FC6EE02E52)
Complete name : F:\Support\series\Key and Peele [, , 1080p, Ukr, Eng]\Key and Peele. s02e03. Puppy Dog Ice-T [, 1080p, Ukr, Eng].
Format :
Format version : Version 4
File size : 1.62 GiB
Duration : 21 min 23 s
Overall bit rate : 10.8 Mb/s
Encoded date : UTC 2020-02-22 19:04:18
Writing application : v42.0.0 ('Overtime') 64-bit
Writing library : libebml v1.3.10 + v1.5.2

Video
ID : 1
Format : AVC
Format/Info : Advanced Video Codec
Format profile : [email protected]
Format settings : CABAC / 4 Ref Frames
Format settings, CABAC : Yes
Format settings, Reference : 4 frames
Codec ID : V_MPEG4/ISO/AVC
Duration : 21 min 23 s
Bit rate : 10 000 kb/s
Width : 1 920 pixels
Height : 1 080 pixels
Display aspect ratio : 16:9
Frame rate mode : Constant
Frame rate : 23.976 (24000/1001) FPS
Color space : YUV
Chroma subsampling : 4:2:0
Bit depth : 8 bits
Scan type : Progressive
Bits/(Pixel*Frame) : 0.201
Stream size : 1.49 GiB (92%)
Writing library : core 142 r2479 dd79a61
Encoding settings : cabac=1 / ref=3 / deblock=1:0:0 / analyse=0x3:0x113 / me=hex / subme=7 / psy=1 / psy_rd=1.00:0.00 / mixed_ref=1 / me_range=16 / chroma_me=1 / trellis=1 / 8x8dct=1 / cqm=0 / deadzone=21,11 / fast_pskip=1 / chroma_qp_offset=-2 / threads=12 / lookahead_threads=2 / sliced_threads=0 / nr=0 / decimate=1 / interlaced=0 / bluray_compat=0 / constrained_intra=0 / bframes=3 / b_pyramid=2 / b_adapt=1 / b_bias=0 / direct=1 / weightb=1 / open_gop=0 / weightp=2 / keyint=240 / keyint_min=24 / scenecut=40 / intra_refresh=0 / rc_lookahead=40 / rc=2pass / mbtree=1 / bitrate=10000 / ratetol=1.0 / qcomp=0.60 / qpmin=0 / qpmax=69 / qpstep=4 / cplxblur=20.0 / qblur=0.5 / vbv_maxrate=62500 / vbv_bufsize=78125 / nal_hrd=none / filler=0 / ip_ratio=1.40 / aq=1:1.00
Language : English
Default : Yes
Forced : No
Color range : Limited
Color primaries : BT.709
Transfer characteristics : BT.709
Matrix coefficients : BT.709

Audio #1
ID : 2
Format : AC-3
Format/Info : Audio Coding 3
Commercial name : Dolby Digital
Codec ID : A_AC3
Duration : 21 min 23 s
Bit rate mode : Constant
Bit rate : 192 kb/s
Channel(s) : 2 channels
Channel layout : L R
Sampling rate : 48.0 kHz
Frame rate : 31.250 FPS (1536 SPF)
Compression mode : Lossy
Delay relative to video : -83 ms
Stream size : 29.4 MiB (2%)
Title : Paramount Comedy
Language : Ukrainian
Service kind : Complete Main
Default : Yes
Forced : No

Audio #2
ID : 3
Format : AC-3
Format/Info : Audio Coding 3
Commercial name : Dolby Digital
Codec ID : A_AC3
Duration : 21 min 23 s
Bit rate mode : Constant
Bit rate : 640 kb/s
Channel(s) : 6 channels
Channel layout : L R C LFE Ls Rs
Sampling rate : 48.0 kHz
Frame rate : 31.250 FPS (1536 SPF)
Compression mode : Lossy
Stream size : 97.9 MiB (6%)
Title : Surround
Language : English
Service kind : Complete Main
Default : No
Forced : No

Text
ID : 4
Format : UTF-8
Codec ID : S_TEXT/UTF8
Codec ID/Info : UTF-8 Plain Text
Duration : 21 min 4 s
Bit rate : 99 b/s
Count of elements : 413
Stream size : 15.4 KiB (0%)
Language : English
Default : No
Forced : No

Menu
00:00:00.000 : :Chapter 1
00:01:54.447 : :Chapter 2
00:08:06.819 : :Chapter 3
00:13:39.443 : :Chapter 4
00:17:26.754 : :Chapter 5
00:21:05.138 : :Chapter 6
Сезон 3
General
Unique ID : 171862459371086847797823336344511222330 (0x814B81745E25733E5B28E17BCCF6923A)
Complete name : F:\Support\series\Key and Peele [, , 1080p, Ukr, Eng]\Key and Peele. s03e01. Les Mis [, 1080p, Ukr, Eng].
Format :
Format version : Version 4
File size : 1.49 GiB
Duration : 21 min 20 s
Overall bit rate : 9 966 kb/s
Encoded date : UTC 2020-02-22 20:11:34
Writing application : v42.0.0 ('Overtime') 64-bit
Writing library : libebml v1.3.10 + v1.5.2

Video
ID : 1
Format : AVC
Format/Info : Advanced Video Codec
Format profile : [email protected]
Format settings : CABAC / 4 Ref Frames
Format settings, CABAC : Yes
Format settings, Reference : 4 frames
Codec ID : V_MPEG4/ISO/AVC
Duration : 21 min 20 s
Bit rate : 9 134 kb/s
Width : 1 920 pixels
Height : 1 080 pixels
Display aspect ratio : 16:9
Frame rate mode : Constant
Frame rate : 23.976 (24000/1001) FPS
Color space : YUV
Chroma subsampling : 4:2:0
Bit depth : 8 bits
Scan type : Progressive
Bits/(Pixel*Frame) : 0.184
Stream size : 1.36 GiB (92%)
Writing library : core 142 r2491 24e4fed
Encoding settings : cabac=1 / ref=4 / deblock=1:0:0 / analyse=0x3:0x133 / me=umh / subme=8 / psy=1 / psy_rd=1.00:0.00 / mixed_ref=1 / me_range=16 / chroma_me=1 / trellis=1 / 8x8dct=1 / cqm=0 / deadzone=21,11 / fast_pskip=0 / chroma_qp_offset=-2 / threads=12 / lookahead_threads=2 / sliced_threads=0 / nr=0 / decimate=1 / interlaced=0 / bluray_compat=0 / constrained_intra=0 / bframes=3 / b_pyramid=2 / b_adapt=1 / b_bias=0 / direct=1 / weightb=1 / open_gop=0 / weightp=2 / keyint=250 / keyint_min=23 / scenecut=40 / intra_refresh=0 / rc_lookahead=40 / rc=2pass / mbtree=1 / bitrate=9134 / ratetol=1.0 / qcomp=0.60 / qpmin=0 / qpmax=69 / qpstep=4 / cplxblur=20.0 / qblur=0.5 / ip_ratio=1.40 / aq=1:1.00
Language : English
Default : Yes
Forced : No

Audio #1
ID : 2
Format : AC-3
Format/Info : Audio Coding 3
Commercial name : Dolby Digital
Codec ID : A_AC3
Duration : 21 min 20 s
Bit rate mode : Constant
Bit rate : 192 kb/s
Channel(s) : 2 channels
Channel layout : L R
Sampling rate : 48.0 kHz
Frame rate : 31.250 FPS (1536 SPF)
Compression mode : Lossy
Stream size : 29.3 MiB (2%)
Title : Paramount Comedy
Language : Ukrainian
Service kind : Complete Main
Default : Yes
Forced : No

Audio #2
ID : 3
Format : AC-3
Format/Info : Audio Coding 3
Commercial name : Dolby Digital
Codec ID : A_AC3
Duration : 21 min 20 s
Bit rate mode : Constant
Bit rate : 640 kb/s
Channel(s) : 6 channels
Channel layout : L R C LFE Ls Rs
Sampling rate : 48.0 kHz
Frame rate : 31.250 FPS (1536 SPF)
Compression mode : Lossy
Stream size : 97.7 MiB (6%)
Language : English
Service kind : Complete Main
Default : No
Forced : No

Text
ID : 4
Format : UTF-8
Codec ID : S_TEXT/UTF8
Codec ID/Info : UTF-8 Plain Text
Duration : 21 min 18 s
Bit rate : 116 b/s
Count of elements : 554
Stream size : 18.2 KiB (0%)
Language : English
Default : No
Forced : No
Сезон 4
General
Unique ID : 264329176731422893093608091513150552887 (0xC6DBF29A1F6FE5FA29B78187A9B8BB37)
Complete name : F:\Support\series\Key and Peele [, , 1080p, Ukr, Eng]\Key and Peele. s04e04. Slap- - In Recovery [, 1080p, Ukr, Eng].
Format :
Format version : Version 4
File size : 808 MiB
Duration : 21 min 25 s
Overall bit rate : 5 276 kb/s
Encoded date : UTC 2020-02-22 21:32:38
Writing application : v42.0.0 ('Overtime') 64-bit
Writing library : libebml v1.3.10 + v1.5.2

Video
ID : 1
Format : AVC
Format/Info : Advanced Video Codec
Format profile : [email protected]
Format settings : CABAC / 4 Ref Frames
Format settings, CABAC : Yes
Format settings, Reference : 4 frames
Codec ID : V_MPEG4/ISO/AVC
Duration : 21 min 25 s
Bit rate : 4 929 kb/s
Width : 1 912 pixels
Height : 1 072 pixels
Display aspect ratio : 16:9
Frame rate mode : Constant
Frame rate : 23.976 (23976/1000) FPS
Color space : YUV
Chroma subsampling : 4:2:0
Bit depth : 8 bits
Scan type : Progressive
Bits/(Pixel*Frame) : 0.100
Stream size : 755 MiB (93%)
Language : English
Default : Yes
Forced : No
Color range : Limited
Color primaries : BT.709
Transfer characteristics : BT.709
Matrix coefficients : BT.709

Audio #1
ID : 2
Format : AC-3
Format/Info : Audio Coding 3
Commercial name : Dolby Digital
Codec ID : A_AC3
Duration : 21 min 25 s
Bit rate mode : Constant
Bit rate : 192 kb/s
Channel(s) : 2 channels
Channel layout : L R
Sampling rate : 48.0 kHz
Frame rate : 31.250 FPS (1536 SPF)
Compression mode : Lossy
Stream size : 29.4 MiB (4%)
Title : Paramount Comedy
Language : Ukrainian
Service kind : Complete Main
Default : Yes
Forced : No

Audio #2
ID : 3
Format : LC
Format/Info : Advanced Audio Codec Low Complexity
Codec ID : A_AAC-2
Duration : 21 min 25 s
Bit rate : 152 kb/s
Channel(s) : 2 channels
Channel layout : L R
Sampling rate : 48.0 kHz
Frame rate : 46.875 FPS (1024 SPF)
Compression mode : Lossy
Stream size : 23.3 MiB (3%)
Language : English
Default : No
Forced : No

Text
ID : 4
Format : UTF-8
Codec ID : S_TEXT/UTF8
Codec ID/Info : UTF-8 Plain Text
Duration : 21 min 17 s
Bit rate : 105 b/s
Count of elements : 517
Stream size : 16.4 KiB (0%)
Language : English
Default : No
Forced : No
Сезон 5
General
Unique ID : 113696933972578166300511533081596335313 (0x55893BA41246598FF9FF8538CA5914D1)
Complete name : F:\Support\series\Key and Peele [, , 1080p, Ukr, Eng]\Key and Peele. s05e02. Airplane Showdown [, 1080p, Ukr, Eng].
Format :
Format version : Version 4
File size : 837 MiB
Duration : 21 min 23 s
Overall bit rate : 5 474 kb/s
Encoded date : UTC 2020-02-28 20:34:20
Writing application : v42.0.0 ('Overtime') 64-bit
Writing library : libebml v1.3.10 + v1.5.2

Video
ID : 1
Format : AVC
Format/Info : Advanced Video Codec
Format profile : [email protected]
Format settings : CABAC / 4 Ref Frames
Format settings, CABAC : Yes
Format settings, Reference : 4 frames
Codec ID : V_MPEG4/ISO/AVC
Duration : 21 min 23 s
Bit rate : 5 129 kb/s
Width : 1 916 pixels
Height : 1 076 pixels
Display aspect ratio : 16:9
Frame rate mode : Constant
Frame rate : 23.976 (24000/1001) FPS
Color space : YUV
Chroma subsampling : 4:2:0
Bit depth : 8 bits
Scan type : Progressive
Bits/(Pixel*Frame) : 0.104
Stream size : 785 MiB (94%)
Language : English
Default : Yes
Forced : No
Color range : Limited
Color primaries : BT.709
Transfer characteristics : BT.709
Matrix coefficients : BT.709

Audio #1
ID : 2
Format : AC-3
Format/Info : Audio Coding 3
Commercial name : Dolby Digital
Codec ID : A_AC3
Duration : 21 min 23 s
Bit rate mode : Constant
Bit rate : 192 kb/s
Channel(s) : 2 channels
Channel layout : L R
Sampling rate : 48.0 kHz
Frame rate : 31.250 FPS (1536 SPF)
Compression mode : Lossy
Stream size : 29.4 MiB (4%)
Title : Paramount Comedy
Language : Ukrainian
Service kind : Complete Main
Default : Yes
Forced : No

Audio #2
ID : 3
Format : LC
Format/Info : Advanced Audio Codec Low Complexity
Codec ID : A_AAC-2
Duration : 21 min 23 s
Bit rate : 150 kb/s
Channel(s) : 2 channels
Channel layout : L R
Sampling rate : 48.0 kHz
Frame rate : 46.875 FPS (1024 SPF)
Compression mode : Lossy
Stream size : 23.0 MiB (3%)
Language : English
Default : No
Forced : No

Text
ID : 4
Format : UTF-8
Codec ID : S_TEXT/UTF8
Codec ID/Info : UTF-8 Plain Text
Duration : 21 min 17 s
Bit rate : 91 b/s
Count of elements : 507
Stream size : 14.2 KiB (0%)
Language : English
Default : No
Forced : No
Скріншоти

:



:

Українську доріжку взято з релізу https://toloka.to/t108110

Джерело: &
Особиста оцінка: 0 - не дивився





Срібний реліз (на рейтинг впливає 50% завантаженого)
 Трекер:    Зареєстрований   

Завантажити / скачати серіал українською



відео для новачків



 Зареєстрований:   2020-02-29 17:45
 Розмір:   41.53 GB 
 Оцінка серіалу:   10/10 (Голосів: 2)
   
Ваш часовий пояс: GMT + 2 Години

Нова тема   Відповісти