Викрадачі немовлят / Maternal Instinct (2019) AVC

Нові коментарі

Нова тема   Відповісти
Автор Повідомлення
Arsenfpu 
Відео Гуртом - фільмокрай
Відео Гуртом - фільмокрай


З нами з: 30.04.09
Востаннє: 14.07.20
Повідомлень: 7064

2020-02-29 18:02  
Викрадачі немовлят / Maternal Instinct (2019) AVC

Викрадачі немовлят / Maternal Instinct (2019) AVC


Жанр:драма
Країна: США



Кінокомпанія: Marvista Entertainment
Режисер: Майкл Фейфер
Актори: Кесі Оуенс, Баріка Крум, Роберт Ву, Aubrey Goldstein, Едріенн Франц, Домінік Кітінг, Шерон М. Белл, Томас Белл, Джей Уілкінс, Крісті Карлсон Романо

Сюжет:
Не кожній жінці дано відчути радість материнства. Але є вихід - усиновлення. Саме ці послуги незаконно надає сумнівна організація, яка для цих цілей викрадає новонароджених. Коли в черговий раз з лікарні зникає маленька дівчинка, її мати докладає всіх зусиль, щоб повернути дитину ...


Тривалість: 01:26:33
Якість:
Відео:
кодек:
розмір кадру: 1 024 х 576
бітрейт: 2 499 кб/с

Аудіо:
мова: українська
переклад: багатоголосий закадровий Індиго ТБ
кодек: 2.0
бітрейт: 192 кб/с
Скріншоти














Про файл
General
Unique ID : 171102609264594387420544445657035131965 (0x80B929F3AEAC88926DAEF16C01054C3D)
Complete name : C:\Maternal Instinct (2019) AVC [Hurtom].
Format :
Format version : Version 4 / Version 2
File size : 1.63 GiB
Duration : 1 h 26 min
Overall bit rate : 2 689 kb/s
Movie name : Викрадачі немовлят / Maternal Instinct (2019)
Encoded date : UTC 2020-03-01 19:45:43
Writing application : v21.0.0 ('Tardigrades Will Inherit The Earth') 32-bit
Writing library : libebml v1.3.5 + v1.4.8
Cover : Yes
Attachments : cover.jpg

Video
ID : 1
Format : AVC
Format/Info : Advanced Video Codec
Format profile : [email protected]
Format settings, CABAC : Yes
Format settings, ReFrames : 8 frames
Codec ID : V_MPEG4/ISO/AVC
Duration : 1 h 26 min
Bit rate : 2 499 kb/s
Width : 1 024 pixels
Height : 576 pixels
Display aspect ratio : 16:9
Frame rate mode : Constant
Frame rate : 23.976 (24000/1001) FPS
Color space : YUV
Chroma subsampling : 4:2:0
Bit depth : 8 bits
Scan type : Progressive
Bits/(Pixel*Frame) : 0.177
Stream size : 1.51 GiB (93%)
Writing library : core 157 r2969 d4099dd
Encoding settings : cabac=1 / ref=8 / deblock=1:-1:-1 / analyse=0x3:0x133 / me=umh / subme=10 / psy=1 / psy_rd=1.00:0.15 / mixed_ref=1 / me_range=32 / chroma_me=1 / trellis=2 / 8x8dct=1 / cqm=0 / deadzone=21,11 / fast_pskip=0 / chroma_qp_offset=-3 / threads=6 / lookahead_threads=1 / sliced_threads=0 / nr=0 / decimate=1 / interlaced=0 / bluray_compat=0 / constrained_intra=0 / bframes=6 / b_pyramid=2 / b_adapt=2 / b_bias=0 / direct=3 / weightb=1 / open_gop=0 / weightp=2 / keyint=240 / keyint_min=23 / scenecut=40 / intra_refresh=0 / rc_lookahead=60 / rc=2pass / mbtree=1 / bitrate=2499 / ratetol=1.0 / qcomp=0.60 / qpmin=0 / qpmax=69 / qpstep=4 / cplxblur=20.0 / qblur=0.5 / vbv_maxrate=31250 / vbv_bufsize=31250 / nal_hrd=none / filler=0 / ip_ratio=1.40 / aq=1:1.00
Default : Yes
Forced : No

Audio
ID : 2
Format : AC-3
Format/Info : Audio Coding 3
Mode extension : CM (complete main)
Format settings, Endianness : Big
Codec ID : A_AC3
Duration : 1 h 25 min
Bit rate mode : Constant
Bit rate : 192 kb/s
Channel(s) : 2 channels
Channel positions : Front: L R
Sampling rate : 48.0 kHz
Frame rate : 31.250 FPS (1536 spf)
Compression mode : Lossy
Stream size : 117 MiB (7%)
Title : Індиго
Default : Yes
Forced : No
Джерело:
Особиста оцінка: не дивився


 Трекер:    Зареєстрований   

Завантажити / скачати фільм українською



відео для новачків



 Зареєстрований:   2020-03-01 23:05
 Розмір:   1.63 GB 
 Оцінка фільму:   5.7/10 (Голосів: 20)
   
bot 
робот


З нами з: 30.09.07
Востаннє: 26.05.05
Повідомлень: 25059

2020-03-01 23:05  
Тему перенесено з Анонси релізів до форуму Фільми


Arsenfpu

Wiwisisilka1 
Частий відвідувач


З нами з: 10.11.19
Востаннє: 14.07.20
Повідомлень: 42

2020-03-15 06:19  
Фільм наївний жах, ледве додивився...3/10
Abc141723364952 
Новенький


З нами з: 17.08.18
Востаннє: 11.07.20
Повідомлень: 6

2020-03-16 20:43  
Не витрачайте на цей фільм час.
Дірявий банальний сюжет, жахлива акторська гра....

Ваш часовий пояс: GMT + 2 Години

Нова тема   Відповісти