Живий за викликом (Сезон 1) / Pushing Daisies (Season 1) (2007-2008) 1080p Ukr/Eng

Нові коментарі

Нова тема   Відповісти
Автор Повідомлення
Anonymous 







2020-02-29 15:52  
Живий за викликом (Сезон 1) / Pushing Daisies (Season 1) (2007-2008) 1080p Ukr/Eng



Жанр: комедія, драма, фантастика
Країна: США



Кінокомпанія: Warner Brothers Burbank Studios - 4000 Warner Boulevard, Burbank, California, USA
Режисер: Адам Кейн, Пітер О`фаллон.
Актори: Лі Пейс, Анна Фріл, Лі МакБрайд, Джим Дейл, Еллен Грін, Свузі Кертц, Крістін Ченоует , Філд Кейт, Сай Річардсон.

Сюжет:
Хлопчик виявляє, що може оживляти одним дотиком. Однак, цей дар як дарує, так і забирає життя. Якщо протягом хвилини не доторкнутися до живого знову, гине хтось інший. Якщо ж доторкнутися... цей живий знову повертається у світ мертвих уже назавжди.
Хлопчик дорослішає та, користуючись своїм даром, розкриває вбивства: оживляє жертву на хвилину, з`ясовує ім`я винного та все повертає назад. Але одного разу він повинен з`ясувати, хто вбив дівчину, що була його дитячим коханням... чи зможе він відпустити її через хвилину?


Тривалість: 1 серія: 40:00 (цілком серій: 9 з 9 )
Перелік серій
1x01 Pie-lette
1x02 Dummy
1x03 The Fun in Funeral
1x04 Pigeon
1x05 Girth
1x06 Bitches
1x07 Smell of Success
1x08 Bitter Sweets
1x09 Corpsicle
Якість:
Відео:
кодек:
розмір кадру: 1920 х 1080
бітрейт: 14 мб/с

Аудіо # 1:
мова: українська
переклад: багатоголосий закадровий
кодек: 2.0
бітрейт: 192 кб/с

Аудіо # 2:
мова: англійська
переклад: оригінал
кодек: 5.1
бітрейт: 640 кб/с
Info
Video
ID : 1
Format : AVC
Format/Info : Advanced Video Codec
Format profile : [email protected]
Format settings : CABAC / 4 Ref Frames
Format settings, CABAC : Yes
Format settings, Reference : 4 frames
Codec ID : V_MPEG4/ISO/AVC
Duration : 41 min 41 s
Bit rate : 14.4 Mb/s
Width : 1 920 pixels
Height : 1 080 pixels
Display aspect ratio : 16:9
Frame rate mode : Constant
Frame rate : 23.976 FPS
Color space : YUV
Chroma subsampling : 4:2:0
Bit depth : 8 bits
Scan type : Progressive
Bits/(Pixel*Frame) : 0.289
Stream size : 4.18 GiB (95%)
Writing library : core 65 r1084M a48d1d0
Encoding settings : cabac=1 / ref=4 / deblock=1:-2:-2 / analyse=0x3:0x113 / me=umh / subme=9 / psy_rd=1.0:0.0 / mixed_ref=1 / me_range=32 / chroma_me=1 / trellis=2 / 8x8dct=1 / cqm=0 / deadzone=21,11 / chroma_qp_offset=-2 / threads=12 / nr=0 / decimate=0 / mbaff=0 / bframes=4 / b_pyramid=1 / b_adapt=2 / b_bias=0 / direct=3 / wpredb=1 / keyint=250 / keyint_min=25 / scenecut=40(pre) / rc=2pass / bitrate=14368 / ratetol=1.0 / qcomp=0.60 / qpmin=10 / qpmax=51 / qpstep=4 / cplxblur=20.0 / qblur=0.5 / vbv_maxrate=50000 / vbv_bufsize=50000 / ip_ratio=1.40 / pb_ratio=1.30 / aq=1:1.00
Language : English
Default : Yes
Forced : No

Audio #1
ID : 2
Format : AC-3
Format/Info : Audio Coding 3
Commercial name : Dolby Digital
Codec ID : A_AC3
Duration : 41 min 42 s
Bit rate mode : Constant
Bit rate : 192 kb/s
Channel(s) : 2 channels
Channel layout : L R
Sampling rate : 48.0 kHz
Frame rate : 31.250 FPS (1536 SPF)
Compression mode : Lossy
Stream size : 57.3 MiB (1%)
Title : MVO - Новий Канал
Language : Ukrainian
Service kind : Complete Main
Default : Yes
Forced : No

Audio #2
ID : 3
Format : AC-3
Format/Info : Audio Coding 3
Commercial name : Dolby Digital
Codec ID : A_AC3
Duration : 41 min 42 s
Bit rate mode : Constant
Bit rate : 640 kb/s
Channel(s) : 6 channels
Channel layout : L R C LFE Ls Rs
Sampling rate : 48.0 kHz
Frame rate : 31.250 FPS (1536 SPF)
Compression mode : Lossy
Stream size : 191 MiB (4%)
Language : English
Service kind : Complete Main
Default : No
Forced : No
Скріншоти













Подяка: пану slavko та salvateur.
Джерело:
Особиста оцінка: 8 - мені сподобалося


Бронзовий реліз (на рейтинг впливає 75% завантаженого)
 Трекер:    Зареєстрований   

Завантажити / скачати серіал українською



відео для новачків



 Зареєстрований:   2020-03-13 15:37
 Розмір:   39.85 GB 
 Оцінка серіалу:   9.5/10 (Голосів: 6)
   
11FrYkT 
Модератор відео


З нами з: 20.02.11
Востаннє: 29.11.20
Повідомлень: 7037

2020-03-07 22:29  
Цитата:
Параметри кодування мають відповідати хоча б me=umh, subme=7, ref=3

Anonymous написано:
subme=6

bot 
робот


З нами з: 30.09.07
Востаннє: 26.05.05
Повідомлень: 26406

2020-03-16 11:59  
Тему перенесено з Неоформлене відео до форуму Серіали в HD


11FrYkT

bigyoutree 
Новенький


З нами з: 23.12.17
Востаннє: 05.08.20
Повідомлень: 1

2020-08-05 10:14  
Можна будь ласка попросити стати на роздачу, а то не завантажуется
Ваш часовий пояс: GMT + 2 Години

Нова тема   Відповісти