Ангели Чарлі / Charlie's Angels (2019) UHD Remux 4K 2160p Ukr/Eng | Sub Ukr/Eng

Нові коментарі

Нова тема   Відповісти
Автор Повідомлення
Anonymous 







2020-02-29 15:14  
Ангели Чарлі / Charlie's Angels (2019) UHD Remux 4K 2160p Ukr/Eng | Sub Ukr/Eng

Ангели Чарлі / Charlie's Angels (2019) UHD Remux 4K 2160p Ukr/Eng | Sub Ukr/Eng

«Сміливі. Яскраві. Нестримні»



Жанр: бойовик, комедія, пригодницький
Країна: США



Кіностудія / кінокомпанія: Columbia Pictures, 2.0 Entertainment, Brownstone Productions
Режисер: Елізабет Бенкс
Актори: Крістен Стюарт, Наомі Скотт, Елла Балинський, Сем Клафлін, Ноа Сентінео, Елізабет Бенкс, Джимон Хонсу , Патрік Стюарт, Луїс Херардо Мендес, Джонатан Такер, Нат Факсон, Кріс Пенг, Давид Шюттер, Ханна Хекстра, Джейн Чирва

Сюжет:
Є такий собі Чарльз Таунсенд, якого багато хто називає просто Чарлі. У нього є своє детективне агентство, яке скромно названо "Таунсенд". Займаються члени цієї компанії надскладними завданнями, для чого потрібна елітна підготовка – спецслужби, унікальні вміння, абикого сюди не візьмуть. Агентство відкриває нові відділення по всій Земній кулі, де є свої Ангели – суперпрофесійні шпигунки, які працюють на Чарлі. Сабіна, Джейн і Єлена якраз із таких – під чуйним керівництвом Бослі вони будуть виконувати будь-які завдання, щоб у черговий раз урятувати світ від дуже поганих людей. Така вже робота в Ангелів Чарлі.


Тривалість: 01:58:30
Якість: UHD Remux 2160p

Відео:
кодек: H.265 (HEVC)
розмір кадру: 3840x2160
бітрейт: 47,3 Мб/с
бітова глибина: 10 біт
кольоровий простір: BT.2020 (HDR)

Аудіо # 1:
мова: українська
переклад: професійний дубльований
кодек: 5.1
бітрейт: 384 кб/с

Аудіо # 2:
мова: англійська
переклад: оригінал
кодек: 5.1
бітрейт: 448 кб/с

Аудіо # 3:
мова: англійська
переклад: оригінал
кодек: -HD Master 7.1
бітрейт: 6242 кб/с

Субтитри # 1-2: (Forced, Full)
мова: українська
тип: програмні (м'які)
формат: *.srt

Субтитри # 3-4: (Forced, Full)
мова: англійська
тип: програмні (м'які)
формат: *.srt
Скріншоти




Info
Код:
General
Complete name                            : Charlie's Angels (2019) UHD Remux 2160p [ukr, eng] [Video_Hurtom].
Format                                   :
Format version                           : Version 4
File size                                : 45.0 GiB
Duration                                 : 1 h 58 min
Overall bit rate mode                    : Variable
Overall bit rate                         : 54.4 Mb/s
Encoded date                             : UTC 2020-03-23 08:34:45
Writing application                      : v30.1.0 ('Forever And More') 64-bit
Writing library                          : libebml v1.3.6 + v1.4.9
Cover                                    : Yes
Attachments                              : cover.jpg

Video
ID                                       : 1
Format                                   : HEVC
Format/Info                              : High Efficiency Video Coding
Commercial name                          : HDR10
Format profile                           : Main [email protected]@High
Codec ID                                 : V_MPEGH/ISO/HEVC
Duration                                 : 1 h 58 min
Bit rate                                 : 47.3 Mb/s
Width                                    : 3 840 pixels
Height                                   : 2 160 pixels
Display aspect ratio                     : 16:9
Frame rate mode                          : Constant
Frame rate                               : 23.976 (24000/1001) FPS
Color space                              : YUV
Chroma subsampling                       : 4:2:0 (Type 2)
Bit depth                                : 10 bits
Bits/(Pixel*Frame)                       : 0.238
Stream size                              : 39.1 GiB (87%)
Language                                 : English
Default                                  : Yes
Forced                                   : No
Color range                              : Limited
Color primaries                          : BT.2020
Transfer characteristics                 : PQ
Matrix coefficients                      : BT.2020 non-constant
Mastering display color primaries        : Display P3
Mastering display luminance              : min: 0.0050 cd/m2, max: 4000 cd/m2
Maximum Content Light Level              : 9949 cd/m2
Maximum Frame-Average Light Level        : 904 cd/m2

Audio #1
ID                                       : 2
Format                                   : AC-3
Format/Info                              : Audio Coding 3
Codec ID                                 : A_AC3
Duration                                 : 1 h 57 min
Bit rate                                 : 384 kb/s
Channel(s)                               : 6 channels
Sampling rate                            : 48.0 kHz
Frame rate                               : 31.250 FPS (1536 SPF)
Compression mode                         : Lossy
Stream size                              : 324 MiB (1%)
Title                                    : , 5.1, 384 Kbps
Language                                 : Ukrainian
Default                                  : Yes
Forced                                   : No

Audio #2
ID                                       : 3
Format                                   : AC-3
Format/Info                              : Audio Coding 3
Commercial name                          : Dolby Digital
Codec ID                                 : A_AC3
Duration                                 : 1 h 58 min
Bit rate mode                            : Constant
Bit rate                                 : 448 kb/s
Channel(s)                               : 6 channels
Channel layout                           : L R C LFE Ls Rs
Sampling rate                            : 48.0 kHz
Frame rate                               : 31.250 FPS (1536 SPF)
Bit depth                                : 16 bits
Compression mode                         : Lossy
Stream size                              : 380 MiB (1%)
Title                                    : , 5.1, 448 Kbps
Language                                 : English
Service kind                             : Complete Main
Default                                  : No
Forced                                   : No

Audio #3
ID                                       : 4
Format                                   : XLL
Format/Info                              : Digital Theater Systems
Commercial name                          : -HD Master Audio
Codec ID                                 : A_DTS
Duration                                 : 1 h 58 min
Bit rate mode                            : Variable
Bit rate                                 : 6 242 kb/s
Channel(s)                               : 8 channels
Channel layout                           : C L R LFE Lb Rb Lss Rss
Sampling rate                            : 48.0 kHz
Frame rate                               : 93.750 FPS (512 SPF)
Bit depth                                : 24 bits
Compression mode                         : Lossless
Stream size                              : 5.17 GiB (11%)
Title                                    : -HD MA, 7.1, 6242 Kbps
Language                                 : English
Default                                  : No
Forced                                   : No

Text #1
ID                                       : 5
Format                                   : UTF-8
Codec ID                                 : S_TEXT/UTF8
Codec ID/Info                            : UTF-8 Plain Text
Duration                                 : 19 min 32 s
Bit rate                                 : 4 b/s
Count of elements                        : 11
Stream size                              : 587 Bytes (0%)
Title                                    : Forced
Language                                 : Ukrainian
Default                                  : Yes
Forced                                   : No

Text #2
ID                                       : 6
Format                                   : UTF-8
Codec ID                                 : S_TEXT/UTF8
Codec ID/Info                            : UTF-8 Plain Text
Duration                                 : 1 h 52 min
Bit rate                                 : 97 b/s
Count of elements                        : 1614
Stream size                              : 80.8 KiB (0%)
Title                                    : Full
Language                                 : Ukrainian
Default                                  : No
Forced                                   : No

Text #3
ID                                       : 7
Format                                   : UTF-8
Codec ID                                 : S_TEXT/UTF8
Codec ID/Info                            : UTF-8 Plain Text
Duration                                 : 19 min 32 s
Bit rate                                 : 1 b/s
Count of elements                        : 9
Stream size                              : 231 Bytes (0%)
Title                                    : Forced
Language                                 : English
Default                                  : No
Forced                                   : No

Text #4
ID                                       : 8
Format                                   : UTF-8
Codec ID                                 : S_TEXT/UTF8
Codec ID/Info                            : UTF-8 Plain Text
Duration                                 : 1 h 52 min
Bit rate                                 : 62 b/s
Count of elements                        : 1743
Stream size                              : 51.4 KiB (0%)
Title                                    : Full
Language                                 : English
Default                                  : No
Forced                                   : No

Menu
00:00:00.000                             : en:Chapter 01
00:10:26.626                             : en:Chapter 02
00:16:50.551                             : en:Chapter 03
00:26:28.754                             : en:Chapter 04
00:31:52.786                             : en:Chapter 05
00:37:36.087                             : en:Chapter 06
00:43:55.883                             : en:Chapter 07
00:46:39.255                             : en:Chapter 08
00:51:26.542                             : en:Chapter 09
00:55:10.265                             : en:Chapter 10
01:03:48.700                             : en:Chapter 11
01:11:24.197                             : en:Chapter 12
01:20:14.852                             : en:Chapter 13
01:30:47.567                             : en:Chapter 14
01:40:31.651                             : en:Chapter 15
01:45:24.109                             : en:Chapter 16
Джерело: &
Особиста оцінка: 7 - моїй подрузі не сподобалося
Увага! Перед завантаженням переконайтесь, що ваш пристрій відтворення (та/або ПЗ) підтримує H.265 (HEVC)



Золотий реліз (завантажене не впливає на рейтинг)
 Трекер:    Зареєстрований   

Завантажити / скачати фільм українською



відео для новачків



 Зареєстрований:   2020-03-23 13:02
 Розмір:   44.99 GB 
 Оцінка фільму:   8.9/10 (Голосів: 10)
   
Anonymous 







2020-03-23 13:02  


23.03.2020 Роздачу оновлено


Замінив доріжку на 5.1 @ 384 kbps



Anonymous 







2020-03-26 13:47  
7/10 на один раз
Ваш часовий пояс: GMT + 2 Години

Нова тема   Відповісти